+ Reply to Thread
Results 1 to 2 of 2
  1. #1
    Administrators Duckload.us's Avatar
    Join Date
    Dec 2010
    Posts
    107,802
    Thanks
    7
    Thanked 112,657 Times in 52,124 Posts

    Question (เกาหลี.ใหม่.มาแล้วครับพากย์ไทยมาสเตอร์)-The Divine Fury [2019] มือนรกพระเจ้าคลั่ง-[HDRip.1080p][Sound:Korean DTS 5.1 & AAC 2.0/Thai AC3 5.1Master][SUB:Eng.SRT/PGS]




    เมื่อแชมเปียนนักสู้ผู้ไร้พลังศรัทธา ถูกลิขิตให้มาทำหน้าที่ฑูตสวรรค์กำราบซาตานซึ่งปลุกป ั่นพลังชั่วร้าย เขาจะต้องเปิดใจเพื่อแปรเปลี่ยนแผลในใจและแผลบนฝ่ามื อ ให้กลายเป็นฝ่ามือที่มีพลังต่อกรกับความชั่วร้ายได้ พัคซอจุน อันซองกี และ อูโฮวาน จะร่วมกันถ่ายทอดเรื่องราวแฟนตาซีปราบผีที่ชวนระทึกข วัญและบทแอคชันต่อสู้ที่เข้มข้นตื่นตาตื่นใจ

    Code:
    Format                      : Matroska
    Format version              : Version 4
    File size                   : 4.44 GiB
    Duration                    : 2 h 8 min
    Overall bit rate            : 4 933 kb/s
    Movie name                  : The Divine Fury 2019 1080p HDRip x264_ฉGold Cup™
    Video
    ID                          : 1
    Format                      : AVC
    Format/Info                 : Advanced Video Codec
    Format profile              : [email protected]
    Format settings             : CABAC / 1 Ref Frames
    Format settings, CABAC      : Yes
    Format settings, Reference  : 1 frame
    Format settings, GOP        : M=1, N=25
    Codec ID                    : V_MPEG4/ISO/AVC
    Duration                    : 2 h 8 min
    Bit rate mode               : Constant
    Bit rate                    : 3 500 kb/s
    Width                       : 1 920 pixels
    Height                      : 804 pixels
    Display aspect ratio        : 2.40:1
    Frame rate mode             : Constant
    Frame rate                  : 29.970 (30000/1001) FPS
    Color space                 : YUV
    Chroma subsampling          : 4:2:0
    Bit depth                   : 8 bits
    Scan type                   : Progressive
    Bits/(Pixel*Frame)          : 0.076
    Stream size                 : 3.14 GiB (71%)
    Title                       : The Divine Fury 2019 1080p HDRip x264_ฉGold Cup™
    Language                    : Korean
    Default                     : Yes
    Forced                      : No
    
    Audio #1
    ID                          : 2
    Format                      : AC-3
    Format/Info                 : Audio Coding 3
    Commercial name             : Dolby Digital
    Codec ID                    : A_AC3
    Duration                    : 2 h 8 min
    Bit rate mode               : Constant
    Bit rate                    : 320 kb/s
    Channel(s)                  : 6 channels
    Channel layout              : L R C LFE Ls Rs
    Sampling rate               : 44.1 kHz
    Frame rate                  : 28.711 FPS (1536 SPF)
    Compression mode            : Lossy
    Stream size                 : 295 MiB (6%)
    Title                       : 5.1 AC3 TH 320K 294M_ฉGold Cup™
    Language                    : Thai
    Service kind                : Complete Main
    Default                     : Yes
    Forced                      : No
    
    Audio #2
    ID                          : 3
    Format                      : DTS
    Format/Info                 : Digital Theater Systems
    Codec ID                    : A_DTS
    Duration                    : 2 h 8 min
    Bit rate mode               : Constant
    Bit rate                    : 911 kb/s
    Channel(s)                  : 6 channels
    Channel layout              : C L R Ls Rs LFE
    Sampling rate               : 11.025 kHz
    Frame rate                  : 10.767 FPS (1024 SPF)
    Bit depth                   : 16 bits
    Compression mode            : Lossy
    Stream size                 : 839 MiB (18%)
    Title                       : dts 5.1 Koriean 11025-839m
    Language                    : Korean
    Default                     : No
    Forced                      : No
    
    Audio #3
    ID                          : 4
    Format                      : AAC LC
    Format/Info                 : Advanced Audio Codec Low Complexity
    Codec ID                    : A_AAC-2
    Duration                    : 2 h 8 min
    Bit rate                    : 192 kb/s
    Channel(s)                  : 2 channels
    Channel layout              : L R
    Sampling rate               : 48.0 kHz
    Frame rate                  : 46.875 FPS (1024 SPF)
    Compression mode            : Lossy
    Stream size                 : 177 MiB (4%)
    Title                       : 2.0 AAC Koriean 179m
    Language                    : Korean
    Default                     : No
    Forced                      : No
    
    Text #1
    ID                          : 5
    Format                      : PGS
    Muxing mode                 : zlib
    Codec ID                    : S_HDMV/PGS
    Codec ID/Info               : Picture based subtitle format used on BDs/HD-DVDs
    Duration                    : 2 h 3 min
    Bit rate                    : 15.9 kb/s
    Count of elements           : 1850
    Stream size                 : 14.1 MiB (0%)
    Title                       : PGS-EN_ฉGold Cup™
    Language                    : English
    Default                     : Yes
    Forced                      : No
    
    Text #2
    ID                          : 6
    Format                      : UTF-8
    Codec ID                    : S_TEXT/UTF8
    Codec ID/Info               : UTF-8 Plain Text
    Duration                    : 2 h 3 min
    Bit rate                    : 25 b/s
    Count of elements           : 923
    Stream size                 : 23.4 KiB (0%)
    Title                       : SRT_ฉGold Cup™
    Language                    : English
    Default                     : No
    Forced                      : No




    Download: cornfile
    http://cornfile.com/hmqizwby97fd
    Download: mekafile
    http://www.mekafile.com/dl.php?f=SJfef1c1eqBO

  2. The Following 2 Users Say Thank You to Duckload.us For This Useful Post:

    apichartdear (11-07-2019), sztttttt (11-07-2019)

  3. #2
    Senior Member
    Join Date
    Jun 2014
    Posts
    1,189
    Thanks
    0
    Thanked 0 Times in 0 Posts
    ขอบคุณครับ

+ Reply to Thread

Thread Information

Users Browsing this Thread

There are currently 1 users browsing this thread. (0 members and 1 guests)

     

Posting Permissions

  • You may not post new threads
  • You may not post replies
  • You may not post attachments
  • You may not edit your posts