+ ตอบกลับกระทู้
สรุปผลการค้นหา 1 ถึง 1 จากทั้งหมด 1
  1. #1
    Administrators รูปส่วนตัว Duckload.us
    สมัครเมื่อ
    Dec 2010
    โพสต์
    133,267
    Thanks
    7
    Thanked 136,895 Times in 60,532 Posts

    Lightbulb [เกาหลี]-[MKV] EMPRESS KI กีซึงนัง จอมนางสองแผ่นดิน EP 01 - 51 END[FULL HD].SOUND THAI / KOREAN / ENGLISH SUB. BY.......MBC-Encode.H.264.1080p. [From HD-TV]-[พากย์ไทย]

    "Empress Ki"



    Rating: 8.6/10 Year: 2013 Genres: Drama / History / Romance Runtime: n/A Language: Korean Director: Han Hee / Seong-joon Lee Writers: Young Chul Jang / Kyung Soon Jung Cast: Hye-Rin Han Plot:

    The story of the woman depicts her struggles to become empress and to protect her love.






    เรื่องย่อ กีซึงนัง จอมนางสองแผ่นดิน

    ]ออกอากาศ:วัน จันทร์–ศุกร์ เวลา 19.15 น.-20.15 น.ช่อง 13 Family
    เกริ่นนำ:Empress Ki ละครอิงประวัติศาสตร์ของสถานีโทรทัศน์ MBC ที่ได้ ฮาจีวอน มารับบทเป็น กีซึงนัง(จักรพรรดินีกี)หญิงสาวสามัญชนจากอาณาจักรโค รยอที่ชีวิตพลิกผันกลายเป็นองค์จักรพรรดินีขององค์จั กรพรรดิแห่งแคว้นหยวน ประเทศจีน
    Empress Ki ละครอิงประวัติศาสตร์ของสถานีโทรทัศน์ MBC ที่ได้ ฮาจีวอน มารับบทเป็น กีซึงนัง(จักรพรรดินีกี)หญิงสาวสามัญชนจากอาณาจักรโค รยอที่ชีวิตพลิกผันกลายเป็นองค์จักรพรรดินีขององค์จั กรพรรดิแห่งแคว้นหยวน ประเทศจีน



    ซึงนังหญิงสาวผู้มีอำนาจสั่นคลอนบัลลังก์ของสองอาณาจ ักร มีชีวิตในวัยเด็กที่รันทด ต้องหนีการตามล่าเพื่อถูกนำไปขายให้กับแคว้นหยวน ซึงนังจึงได้ปลอมตัวเป็นชายและต่อมาได้กลายเป็นหัวหน ้ากลุ่มรับทำงานทุกอย่าง เพื่อนำเงินที่ได้ไปไถ่ตัวหญิงสาวที่ถูกขายไปยังแคว้ นหยวน โชคชะตาทำให้ซึงนังได้พบกับองค์รัชทายาทแห่งโครยอที่ ปลอมพระองค์มาสืบเรื่องลับ และโชคชะตาก็ได้เล่นตลกกับซึงนังอีกครั้งเมื่อได้พบก ับฮ่องเต้แห่งแคว้นหยวน รักสามเส้านี้จะจบเช่นไร และเส้นทางการขึ้นสู่การเป็นองค์จักรพรรดินีของกีซึง นังจะมีอุปสรรคเพียงใด โปรดติดตาม...

    MEDIAINFO

    Format : Matroska
    Format version : Version 4 / Version 2
    File size : 1.81 GiB
    Duration : 59 min 17 s
    Overall bit rate : 4 364 kb/s
    Encoded date : UTC 2017-08-20 12:14:15
    Writing application : mkvmerge v13.0.0 ( The Juggler ) 64bit
    Writing library : libebml v1.3.4 + libmatroska v1.4.5

    Video
    ID : 1
    Format : AVC
    Format/Info : Advanced Video Codec
    Format profile : [email protected]
    Format settings, CABAC : Yes
    Format settings, RefFrames : 2 frames
    Format settings, GOP : M=3, N=13
    Codec ID : V_MPEG4/ISO/AVC
    Duration : 59 min 17 s
    Bit rate : 3 976 kb/s
    Width : 1 920 pixels
    Height : 1 080 pixels
    Display aspect ratio : 16:9
    Frame rate mode : Constant
    Frame rate : 30.000 FPS
    Color space : YUV
    Chroma subsampling : 4:2:0
    Bit depth : 8 bits
    Scan type : Progressive
    Bits/(Pixel*Frame) : 0.064
    Stream size : 1.65 GiB (91%)
    Language : English
    Default : Yes
    Forced : No

    Audio #1
    ID : 2
    Format : AAC
    Format/Info : Advanced Audio Codec
    Format profile : LC
    Codec ID : A_AAC
    Duration : 59 min 17 s
    Bit rate : 192 kb/s
    Channel(s) : 2 channels
    Channel positions : Front: L R
    Sampling rate : 48.0 kHz
    Frame rate : 46.875 FPS (1024 SPF)
    Compression mode : Lossy
    Stream size : 81.4 MiB (4%)
    Language : Thai
    Default : Yes
    Forced : No

    Audio #2
    ID : 3
    Format : AAC
    Format/Info : Advanced Audio Codec
    Format profile : LC
    Codec ID : A_AAC
    Duration : 59 min 17 s
    Bit rate : 192 kb/s
    Channel(s) : 2 channels
    Channel positions : Front: L R
    Sampling rate : 48.0 kHz
    Frame rate : 46.875 FPS (1024 SPF)
    Compression mode : Lossy
    Stream size : 81.4 MiB (4%)
    Language : Korean
    Default : No
    Forced : No

    Text
    ID : 4
    Format : UTF-8
    Codec ID : S_TEXT/UTF8
    Codec ID/Info : UTF-8 Plain Text
    Duration : 58 min 43 s
    Bit rate : 34 b/s
    Count of elements : 620
    Stream size : 15.0 KiB (0%)
    Language : English
    Default : No
    Forced : No










    1
    http://www.filecondo.com/dl.php?f=m9b34d1DK7bo
    2
    http://www.filecondo.com/dl.php?f=E45b7e1DK7cn
    3
    http://www.filecondo.com/dl.php?f=4e7a4d1DK7dh
    4
    http://www.filecondo.com/dl.php?f=773c061DK7ei
    5
    http://www.filecondo.com/dl.php?f=Q5e1611DK7fb
    6
    http://www.filecondo.com/dl.php?f=V432471DK7gc
    7
    http://www.filecondo.com/dl.php?f=G15cd11DK7Fm
    8
    http://www.filecondo.com/dl.php?f=nfa25e1DK7h8
    9
    http://www.filecondo.com/dl.php?f=b0dd2a1DK7ia
    10
    http://www.filecondo.com/dl.php?f=O823c81DK7j4
    11
    http://www.filecondo.com/dl.php?f=054c731DK7k5
    12
    http://www.filecondo.com/dl.php?f=v7f1481DK7l1
    13
    http://www.filecondo.com/dl.php?f=V42ea71DK7m4
    14
    http://www.filecondo.com/dl.php?f=v396be1DK7n1
    15
    http://www.filecondo.com/dl.php?f=Sf7b331DK7nY
    16
    http://www.filecondo.com/dl.php?f=3482a91DK7oX
    17
    http://www.filecondo.com/dl.php?f=71bbaa1DK7pX
    18
    http://www.filecondo.com/dl.php?f=v712bc1DK7qZ
    19
    http://www.filecondo.com/dl.php?f=a077d71DK7rW
    20
    http://www.filecondo.com/dl.php?f=h422ad1DK7sV
    21
    http://www.filecondo.com/dl.php?f=4544911DK7tQ
    22
    http://www.filecondo.com/dl.php?f=U736ab1DK7uM
    23
    http://www.filecondo.com/dl.php?f=Q90cf01DK7vJ
    24
    http://www.filecondo.com/dl.php?f=wa4e651DK7wJ
    25
    http://www.filecondo.com/dl.php?f=906f681DK7xK
    26
    http://www.filecondo.com/dl.php?f=E6313c1DK7yz
    27
    http://www.filecondo.com/dl.php?f=Yd6e751DK7zD
    28
    http://www.filecondo.com/dl.php?f=Iff91c1DK7Az
    29
    http://www.filecondo.com/dl.php?f=K29d311DK7By
    30
    http://www.filecondo.com/dl.php?f=J75c3b1DK7Cy
    31
    http://www.filecondo.com/dl.php?f=b664101DK7Dq
    32
    http://www.filecondo.com/dl.php?f=O9381c1DK7En
    33
    http://www.filecondo.com/dl.php?f=26174d1DK6SW
    34
    http://www.filecondo.com/dl.php?f=Pc24c61DK6TV
    35
    http://www.filecondo.com/dl.php?f=f2f2e51DK6UT
    36
    http://www.filecondo.com/dl.php?f=i1317e1DK6VW
    37
    http://www.filecondo.com/dl.php?f=u365f11DK6WO
    38
    http://www.filecondo.com/dl.php?f=682bc41DK6XN
    39
    http://www.filecondo.com/dl.php?f=k510d71DK6YK
    40
    http://www.filecondo.com/dl.php?f=Vc223f1DK6ZJ
    41
    http://www.filecondo.com/dl.php?f=cfa3831DK70G
    42
    http://www.filecondo.com/dl.php?f=w285141DK71E
    43
    http://www.filecondo.com/dl.php?f=Bd1c4a1DK72E
    44
    http://www.filecondo.com/dl.php?f=9cfc231DK73B
    45
    http://www.filecondo.com/dl.php?f=A150b81DK74z
    46
    http://www.filecondo.com/dl.php?f=yb42cd1DK75x
    47
    http://www.filecondo.com/dl.php?f=9378551DK76t
    48
    http://www.filecondo.com/dl.php?f=Qfb9a81DK77s
    49
    http://www.filecondo.com/dl.php?f=2df30c1DK78q
    50
    http://www.filecondo.com/dl.php?f=3229531DK79s
    51
    http://www.filecondo.com/dl.php?f=Haf3591DK7am

  2. The Following 2 Users Say Thank You to Duckload.us For This Useful Post:

    dorapao (06-13-2018), gmr999 (08-24-2018)

+ ตอบกลับกระทู้

ข้อมูลกระทู้

Users Browsing this Thread

ในขณะนี้มี 1 ท่านดูกระทู้อยู่. (0 สมาชิกและ 1 ผู้เยี่ยมชม)

     

กฎการโพสต์ข้อความ

  • ท่าน ไม่สามารถ ตั้งกระทู้ใหม่ได้
  • ท่าน ไม่สามารถ ตอบกระทู้ได้
  • ท่าน ไม่สามารถ แนบไฟล์ได้
  • ท่าน ไม่สามารถ แก้ไขข้อความโพสต์ได้
  • BB code สถานะ เปิด
  • Smilies สถานะ เปิด
  • [IMG] สถานะ เปิด
  • HTML สถานะ ปิด