+ ตอบกลับกระทู้
สรุปผลการค้นหา 1 ถึง 3 จากทั้งหมด 3
  1. #1
    Administrators รูปส่วนตัว Duckload.us
    สมัครเมื่อ
    Dec 2010
    โพสต์
    108,653
    Thanks
    7
    Thanked 113,690 Times in 52,418 Posts

    Question The Night Eats The Wolrd. 2018. (ภ. ฝรั่งเศส) [พากย์:อังกฤษ][SUB:อังกฤษ-ไทย][1080p]



    Format : Matroska
    Format version : Version 4 / Version 2
    File size : 6.56 GiB
    Duration : 1h 33mn
    Overall bit rate : 10.1 Mbps
    Encoded date : UTC 2019-07-11 13:05:21
    Writing application : mkvmerge v28.1.0 ('Morning Child') 64-bit
    Writing library : libebml v1.3.6 + libmatroska v1.4.9
    DURATION : 01:28:52.396000000
    NUMBER_OF_FRAMES : 405
    NUMBER_OF_BYTES : 10328
    _STATISTICS_WRITING_APP : mkvmerge v28.1.0 ('Morning Child') 64-bit
    _STATISTICS_WRITING_DATE_UTC : 2019-07-11 13:05:21
    _STATISTICS_TAGS : BPS DURATION NUMBER_OF_FRAMES NUMBER_OF_BYTES

    Video
    ID : 1
    Format : AVC
    Format/Info : Advanced Video Codec
    Format profile : [email protected]
    Format settings, CABAC : Yes
    Format settings, ReFrames : 4 frames
    Codec ID : V_MPEG4/ISO/AVC
    Duration : 1h 33mn
    Bit rate : 8 541 Kbps
    Width : 1 920 pixels
    Height : 1 040 pixels
    Display aspect ratio : 1.85:1
    Frame rate mode : Constant
    Frame rate : 24.000 fps
    Color space : YUV
    Chroma subsampling : 4:2:0
    Bit depth : 8 bits
    Scan type : Progressive
    Bits/(Pixel*Frame) : 0.178
    Stream size : 5.45 GiB (83%)
    Writing library : x264 core 155 r2901 7d0ff22
    Encoding settings : cabac=1 / ref=4 / deblock=1:0:0 / analyse=0x3:0x113 / me=umh / subme=8 / psy=1 / psy_rd=1.00:0.00 / mixed_ref=1 / me_range=16 / chroma_me=1 / trellis=2 / 8x8dct=1 / cqm=0 / deadzone=21,11 / fast_pskip=0 / chroma_qp_offset=-2 / threads=12 / lookahead_threads=2 / sliced_threads=0 / nr=0 / decimate=1 / interlaced=0 / bluray_compat=0 / constrained_intra=0 / bframes=3 / b_pyramid=2 / b_adapt=1 / b_bias=0 / direct=1 / weightb=1 / open_gop=0 / weightp=2 / keyint=250 / keyint_min=24 / scenecut=40 / intra_refresh=0 / rc_lookahead=50 / rc=2pass / mbtree=1 / bitrate=8541 / ratetol=1.0 / qcomp=0.60 / qpmin=0 / qpmax=69 / qpstep=4 / cplxblur=20.0 / qblur=0.5 / ip_ratio=1.40 / aq=1:1.00
    Default : Yes
    Forced : No

    Audio
    ID : 2
    Format : DTS
    Format/Info : Digital Theater Systems
    Mode : 16
    Format settings, Endianness : Big
    Codec ID : A_DTS
    Duration : 1h 33mn
    Bit rate mode : Constant
    Bit rate : 1 509 Kbps
    Channel count : 6 channels
    Channel positions : Front: L C R, Side: L R, LFE
    Sampling rate : 48.0 KHz
    Bit depth : 24 bits
    Compression mode : Lossy
    Stream size : 1 008 MiB (15%)
    Language : English
    Default : Yes
    Forced : No

    Text #1
    ID : 3
    Format : PGS
    Muxing mode : zlib
    Codec ID : S_HDMV/PGS
    Codec ID/Info : The same subtitle format used on BDs/HD-DVDs
    Language : Thai
    Default : Yes
    Forced : No

    Text #2
    ID : 4
    Format : UTF-8
    Codec ID : S_TEXT/UTF8
    Codec ID/Info : UTF-8 Plain Text
    Language : English
    Default : No
    Forced : No



    เรื่องย่อๆ.. ชายหนุ่มนักดนตรี ผู้อกหัก หลักลอย
    คอยงาน สังขารเสื่อม แวะมาหาอดีตกิ๊กเพื่อมา
    เอาเดโมเทปเพลง พอดีหล่อนจัดปาร์ตี้ฉลองกัน
    กับกิ๊กใหม่พร้อมเพื่อนๆ หนุ่มนักดนตรีเผลอดื่ม
    เหล้าเข้าไปเยอะช่วงรอหล่อนว่าง ผล็อยหลับไป
    จนยันเช้า เมื่อตื่นขึ้นมาก็พบว่าทั้งกรุงปารีสเปลี่ยนไป
    เหลือเขาคนเดียวโดดๆ ที่ต้องหาทางเอาชีวิตรอด










    Download: cornfile
    http://cornfile.com/tarx3nv6ioam
    Download: mekafile
    http://www.mekafile.com/dl.php?f=OO5101bWJko9

  2. The Following 3 Users Say Thank You to Duckload.us For This Useful Post:

    noi54 (07-27-2019), smakha (07-22-2019), Wesker_TOT (07-21-2019)

  3. #2
    Senior Member
    สมัครเมื่อ
    Jun 2014
    โพสต์
    1,347
    Thanks
    0
    Thanked 0 Times in 0 Posts
    ขอบคุณครับ

  4. #3
    Senior Member
    สมัครเมื่อ
    Dec 2013
    โพสต์
    1,843
    Thanks
    3,780
    Thanked 0 Times in 0 Posts
    ว๊าวววววว...

    ขอบคุณนะครับ...

+ ตอบกลับกระทู้

ข้อมูลกระทู้

Users Browsing this Thread

ในขณะนี้มี 1 ท่านดูกระทู้อยู่. (0 สมาชิกและ 1 ผู้เยี่ยมชม)

     

กฎการโพสต์ข้อความ

  • ท่าน ไม่สามารถ ตั้งกระทู้ใหม่ได้
  • ท่าน ไม่สามารถ ตอบกระทู้ได้
  • ท่าน ไม่สามารถ แนบไฟล์ได้
  • ท่าน ไม่สามารถ แก้ไขข้อความโพสต์ได้
  • BB code สถานะ เปิด
  • Smilies สถานะ เปิด
  • [IMG] สถานะ เปิด
  • HTML สถานะ ปิด