+ ตอบกลับกระทู้
สรุปผลการค้นหา 1 ถึง 3 จากทั้งหมด 3
  1. #1
    Administrators รูปส่วนตัว Duckload.us
    สมัครเมื่อ
    Dec 2010
    โพสต์
    108,576
    Thanks
    7
    Thanked 113,639 Times in 52,403 Posts

    Question [ฝรั่ง]-John Wick: Chapter 3 - Parabellum (2019) จอห์น วิค แรงกว่านรก 3 - [พากย์ไทยโรง+อังกฤษ] [บรรยายอังกฤษ]



    การกลับมาผงาดของสุดยอดนักฆ่าแห่งโลกภาพยนตร์ที่ผู้ช มทั้งโลกรอคอย หลังจากถูกสั่ง “ตัดหางปล่อยวัด” เพราะแหกกฏศักดิ์สิทธ์ข้อที่ว่า “ห้ามฆ่าในพื้นที่โรงแรมคอนติเนนตัล” ทำให้ จอห์น วิค (คีอานู รีฟส์) ตกเป็นเป้าของมือสังหารทั่วทั้งวงการที่ต้องการเงินค ่าหัวล่าตัวเขาที่สูงถึง 14 ล้านเหรียญ จอห์นต้องพึ่งตัวเองในการเอาชีวิตรอดจากนิวยอร์กที่ซ ึ่งครั้งหนึ่งเคยเป็นบ้านของเขา

    กระเสือกกระสนมาถึงคาซาบลังก้า และเรียกหาพันธะเลือดที่เขาเคยทำไว้กับ โซเฟีย (ฮัลลี เบอร์รี) สาวสวยสุดอันตรายเจ้าของไนท์คลับที่ควบคุมเครือข่ายน อกกฏหมายทั้งหมดในแอฟริกาเหนือ จอห์นต้องการให้โซเฟียช่วยหาตัว ดิ เอลเดอร์ ผู้ที่เปรียบเป็นดาไลลามะแห่งโลกอาชญากร จอห์นยื่นข้อเสนอว่าจะให้เขาไปฆ่าใครได้แลกับการล้าง มลทินให้เขา และเป้าสังหารที่ดิ เอลเดอร์ ต้องการให้จอห์นลงมือครั้งนี้ไม่ใช่ใครที่ไหนแต่คือ. .. วินสตัน ผู้จัดการโรงแรมคอนติเนนตัล! ที่ครั้งหนึ่งเคยช่วยชีวิตเขาไว้


    Duration : 2 h 11 min
    Overall bit rate : 2 398 kb/s
    Encoded date : UTC 2019-08-14 02:24:18
    Writing application : mkvmerge v36.0.0 ('Is That Jazz?') 64-bit
    Writing library : libebml v1.3.9 + libmatroska v1.5.2

    Video
    ID : 1
    Format : AVC
    Format/Info : Advanced Video Codec
    Format profile : [email protected]
    Format settings : CABAC / 4 Ref Frames
    Format settings, CABAC : Yes
    Format settings, Reference frames : 4 frames
    Codec ID : V_MPEG4/ISO/AVC
    Duration : 2 h 11 min
    Bit rate : 1 429 kb/s
    Width : 1 920 pixels
    Height : 800 pixels
    Display aspect ratio : 2.40:1
    Frame rate mode : Variable
    Frame rate : 23.976 FPS
    Color space : YUV
    Chroma subsampling : 4:2:0
    Bit depth : 8 bits
    Scan type : Progressive
    Bits/(Pixel*Frame) : 0.039
    Stream size : 1.31 GiB (60%)
    Writing library : x264 core 148 r2748 97eaef2
    Encoding settings : cabac=1 / ref=2 / deblock=1:0:0 / analyse=0x3:0x113 / me=hex / subme=4 / psy=1 / psy_rd=1.00:0.00 / mixed_ref=0 / me_range=16 / chroma_me=1 / trellis=1 / 8x8dct=1 / cqm=0 / deadzone=21,11 / fast_pskip=1 / chroma_qp_offset=0 / threads=6 / lookahead_threads=1 / sliced_threads=0 / nr=0 / decimate=1 / interlaced=0 / bluray_compat=0 / constrained_intra=0 / bframes=3 / b_pyramid=2 / b_adapt=1 / b_bias=0 / direct=1 / weightb=1 / open_gop=0 / weightp=1 / keyint=250 / keyint_min=23 / scenecut=40 / intra_refresh=0 / rc_lookahead=20 / rc=2pass / mbtree=1 / bitrate=1429 / ratetol=1.0 / qcomp=0.60 / qpmin=0 / qpmax=69 / qpstep=4 / cplxblur=20.0 / qblur=0.5 / ip_ratio=1.40 / aq=1:1.00
    Default : Yes
    Forced : No

    Audio #1
    ID : 2
    Format : AC-3
    Format/Info : Audio Coding 3
    Commercial name : Dolby Digital
    Codec ID : A_AC3
    Duration : 2 h 11 min
    Bit rate mode : Constant
    Bit rate : 320 kb/s
    Channel(s) : 6 channels
    Channel layout : L R C LFE Ls Rs
    Sampling rate : 48.0 kHz
    Frame rate : 31.250 FPS (1536 SPF)
    Bit depth : 16 bits
    Compression mode : Lossy
    Stream size : 300 MiB (13%)
    Language : English
    Service kind : Complete Main
    Default : No
    Forced : Yes

    Audio #2
    ID : 3
    Format : AC-3
    Format/Info : Audio Coding 3
    Commercial name : Dolby Digital
    Codec ID : A_AC3
    Duration : 2 h 10 min
    Bit rate mode : Constant
    Bit rate : 640 kb/s
    Channel(s) : 6 channels
    Channel layout : L R C LFE Ls Rs
    Sampling rate : 48.0 kHz
    Frame rate : 31.250 FPS (1536 SPF)
    Bit depth : 16 bits
    Compression mode : Lossy
    Delay relative to video : 19 s 300 ms
    Stream size : 599 MiB (27%)
    Language : Thai
    Service kind : Complete Main
    Default : Yes
    Forced : No

    Text
    ID : 4
    Format : PGS
    Muxing mode : zlib
    Codec ID : S_HDMV/PGS
    Codec ID/Info : Picture based subtitle format used on BDs/HD-DVDs
    Duration : 1 h 59 min
    Bit rate : 24.1 kb/s
    Count of elements : 1528
    Stream size : 20.7 MiB (1%)
    Language : English
    Default : Yes
    Forced : No




    Download: cornfile
    http://cornfile.com/38f8o0lhna85
    Download: mekafile
    http://www.mekafile.com/dl.php?f=Lc4f3ebXKNPe

  2. The Following 2 Users Say Thank You to Duckload.us For This Useful Post:

    gaszolineskywalker (08-15-2019), Wesker_TOT (08-15-2019)

  3. #2
    Junior Member
    สมัครเมื่อ
    May 2014
    โพสต์
    20
    Thanks
    1
    Thanked 0 Times in 0 Posts
    ขอบคุณครับ

  4. #3
    Senior Member
    สมัครเมื่อ
    Dec 2013
    โพสต์
    1,839
    Thanks
    3,778
    Thanked 0 Times in 0 Posts
    ขอบคุณนะครับ...

+ ตอบกลับกระทู้

ข้อมูลกระทู้

Users Browsing this Thread

ในขณะนี้มี 1 ท่านดูกระทู้อยู่. (0 สมาชิกและ 1 ผู้เยี่ยมชม)

     

กฎการโพสต์ข้อความ

  • ท่าน ไม่สามารถ ตั้งกระทู้ใหม่ได้
  • ท่าน ไม่สามารถ ตอบกระทู้ได้
  • ท่าน ไม่สามารถ แนบไฟล์ได้
  • ท่าน ไม่สามารถ แก้ไขข้อความโพสต์ได้
  • BB code สถานะ เปิด
  • Smilies สถานะ เปิด
  • [IMG] สถานะ เปิด
  • HTML สถานะ ปิด