+ ตอบกลับกระทู้
สรุปผลการค้นหา 1 ถึง 3 จากทั้งหมด 3
  1. #1
    Administrators รูปส่วนตัว Duckload.us
    สมัครเมื่อ
    Dec 2010
    โพสต์
    108,714
    Thanks
    7
    Thanked 113,730 Times in 52,424 Posts

    Question ภาพชัด โจ๊กเกอร์ 2019 Joker.2019.1080p.KORSUB.HDRip.x264.AAC2.0-THR-AC3.-2.0 เสียงไทยโรง



    ผลงานเรื่องราวจุดเริ่มต้นของ “Joker” จากผู้กำกับฯ ทอดด์ ฟิลลิปส์ ที่จะพาไปรู้จักกับโลกของอาร์เธอร์ เฟลค โดยมีการถ่ายทอดการแสดงไว้อย่างน่าประทับใจโดยวาคิน ฟีนิกซ์ อาร์เธอร์เป็นชายคนหนึ่งที่ต้องเผชิญหน้ากับความโหดร ้ายทารุณและสังคมที่เต็มไปด้วยการเหยียดหยาม เขาต้องเผชิญกับความอ้างว้างจนเปลี่ยนเขาจากที่เป็นค นอ่อนแอกลายเป็นคนโหดเหี้ยม เขารับจ้างแต่งชุดตัวตลกรายวัน จนกระทั่งคืนหนึ่งที่เขาพยายามจะแสดงตลกเดี่ยว แต่กลับพบว่าตัวเองต่างหากที่เป็นเรื่องตลก เขาไม่เป็นตัวของตัวเองเวลาที่มีผู้คนอยู่รายล้อม ซึ่งเห็นได้จากเสียงหัวเราะที่ควบคุมไม่ได้และดูไม่เ หมาะสม ยิ่งเขาพยายามควบคุมเท่าไหร่มันก็ยิ่งแสดงออกมามากขึ ้น จนทำให้เขาแสดงความเยาะเย้ยและความรุนแรงออกมา


    Video
    ID : 1
    Format : AVC
    Format/Info : Advanced Video Codec
    Format profile : [email protected]
    Format settings : CABAC / 4 Ref Frames
    Format settings, CABAC : Yes
    Format settings, Reference fra : 4 frames
    Codec ID : V_MPEG4/ISO/AVC
    Duration : 1 h 55 min
    Bit rate : 4 500 kb/s
    Width : 1 920 pixels
    Height : 1 040 pixels
    Display aspect ratio : 1.85:1
    Frame rate mode : Constant
    Frame rate : 30.000 FPS
    Color space : YUV
    Chroma subsampling : 4:2:0
    Bit depth : 8 bits
    Scan type : Progressive
    Bits/(Pixel*Frame) : 0.075
    Stream size : 3.64 GiB (91%)
    Writing library : x264 core 148 r2795M aaa9aa8
    Encoding settings : cabac=1 / ref=4 / deblock=1:0:0 / analyse=0x3:0x113 / me=umh / subme=9 / psy=1 / psy_rd=1.00:0.00 / mixed_ref=1 / me_range=16 / chroma_me=1 / trellis=2 / 8x8dct=1 / cqm=0 / deadzone=21,11 / fast_pskip=1 / chroma_qp_offset=-2 / threads=72 / lookahead_threads=6 / sliced_threads=0 / nr=0 / decimate=1 / interlaced=0 / bluray_compat=0 / constrained_intra=0 / bframes=3 / b_pyramid=2 / b_adapt=2 / b_bias=0 / direct=3 / weightb=1 / open_gop=0 / weightp=2 / keyint=250 / keyint_min=25 / scenecut=40 / intra_refresh=0 / rc_lookahead=50 / rc=abr / mbtree=1 / bitrate=4500 / ratetol=1.0 / qcomp=0.60 / qpmin=0 / qpmax=69 / qpstep=4 / ip_ratio=1.40 / aq=1:1.00
    Default : Yes
    Forced : No

    Audio #1
    ID : 2
    Format : AC-3
    Format/Info : Audio Coding 3
    Commercial name : Dolby Digital
    Codec ID : A_AC3
    Duration : 1 h 55 min
    Bit rate mode : Constant
    Bit rate : 192 kb/s
    Channel(s) : 2 channels
    Channel layout : L R
    Sampling rate : 48.0 kHz
    Frame rate : 31.250 FPS (1536 SPF)
    Bit depth : 16 bits
    Compression mode : Lossy
    Stream size : 159 MiB (4%)
    Title : THR
    Language : Thai
    Service kind : Complete Main
    Default : Yes
    Forced : No

    Audio #2
    ID : 3
    Format : AAC LC
    Format/Info : Advanced Audio Codec Low Complexity
    Codec ID : A_AAC-2
    Duration : 1 h 55 min
    Bit rate : 256 kb/s
    Channel(s) : 2 channels
    Channel layout : L R
    Sampling rate : 48.0 kHz
    Frame rate : 46.875 FPS (1024 SPF)
    Compression mode : Lossy
    Delay relative to video : 37 ms
    Stream size : 212 MiB (5%)
    Language : English
    Default : No
    Forced : No



    Download: cornfile
    http://cornfile.com/pwphuku1ek9k
    Download: mekafile
    http://www.mekafile.com/dl.php?f=GR2ef7c1oNIB

  2. #2
    Junior Member
    สมัครเมื่อ
    Dec 2012
    ที่อยู่
    In your heart.
    โพสต์
    10
    Thanks
    0
    Thanked 0 Times in 0 Posts
    รบกวนอัพลิ้งค์ filecondo ด้วยครับ

  3. #3
    Senior Member
    สมัครเมื่อ
    Jun 2014
    โพสต์
    1,505
    Thanks
    0
    Thanked 0 Times in 0 Posts
    ขอบคุณครับ

+ ตอบกลับกระทู้

ข้อมูลกระทู้

Users Browsing this Thread

ในขณะนี้มี 1 ท่านดูกระทู้อยู่. (0 สมาชิกและ 1 ผู้เยี่ยมชม)

     

กฎการโพสต์ข้อความ

  • ท่าน ไม่สามารถ ตั้งกระทู้ใหม่ได้
  • ท่าน ไม่สามารถ ตอบกระทู้ได้
  • ท่าน ไม่สามารถ แนบไฟล์ได้
  • ท่าน ไม่สามารถ แก้ไขข้อความโพสต์ได้
  • BB code สถานะ เปิด
  • Smilies สถานะ เปิด
  • [IMG] สถานะ เปิด
  • HTML สถานะ ปิด