+ ตอบกลับกระทู้
สรุปผลการค้นหา 1 ถึง 2 จากทั้งหมด 2
  1. #1
    Administrators รูปส่วนตัว Duckload.us
    สมัครเมื่อ
    Dec 2010
    โพสต์
    108,662
    Thanks
    7
    Thanked 113,697 Times in 52,418 Posts

    Question [ฝรั่ง]-[ภาพ มาสเตอร์+ซับไทย] It Chapter Two (2019) อิท โผล่จากนรก 2 - [Soundtrack บรรยายไทย+อังกฤษ] 1080p.WEB-DL.H264.AC3




    เขารอคอยมา 27 ปี เพื่อจะได้กลับมาอีกครั้ง เพราะตัวตลกปีศาจเพนนี่ไวซ์จะกลับมาเยือนเมืองเดอร์ร ี่ รัฐเมนในทุก ๆ 27 ปี IT: Chapter Two - อิท โผล่จากนรก 2 จึงพาเหล่าตัวละครที่แยกย้ายจากกันไปนานกลับมารวมตัว กันอีกครั้งในวัยผู้ใหญ่ ซึ่งนับเป็นเวลากว่า 3 ศตวรรษหลังจากเหตุการณ์สยองเกิดขึ้นกับพวกเขาตอนเด็ก ในภาพยนตร์ภาคแรก

    Format : Matroska
    Format version : Version 4
    File size : 5.96 GiB
    Duration : 2 h 49 min
    Overall bit rate : 5 038 kb/s
    Encoded date : UTC 2019-11-19 03:15:45
    Writing application : mkvmerge v40.0.0 ('Old Town Road + Pony') 64-bit
    Writing library : libebml v1.3.9 + libmatroska v1.5.2
    Cover : Yes
    Attachments : cover

    Video
    ID : 1
    Format : AVC
    Format/Info : Advanced Video Codec
    Format profile : [email protected]
    Format settings : CABAC / 5 Ref Frames
    Format settings, CABAC : Yes
    Format settings, Reference frames : 5 frames
    Codec ID : V_MPEG4/ISO/AVC
    Duration : 2 h 49 min
    Bit rate : 4 555 kb/s
    Width : 1 920 pixels
    Height : 804 pixels
    Display aspect ratio : 2.40:1
    Frame rate mode : Constant
    Frame rate : 23.976 (24000/1001) FPS
    Color space : YUV
    Chroma subsampling : 4:2:0
    Bit depth : 8 bits
    Scan type : Progressive
    Bits/(Pixel*Frame) : 0.123
    Stream size : 5.39 GiB (90%)
    Language : English
    Default : Yes
    Forced : No
    Color range : Limited
    Color primaries : BT.709
    Transfer characteristics : BT.709
    Matrix coefficients : BT.709

    Audio
    ID : 2
    Format : AC-3
    Format/Info : Audio Coding 3
    Commercial name : Dolby Digital
    Codec ID : A_AC3
    Duration : 2 h 49 min
    Bit rate mode : Constant
    Bit rate : 384 kb/s
    Channel(s) : 6 channels
    Channel layout : L R C LFE Ls Rs
    Sampling rate : 48.0 kHz
    Frame rate : 31.250 FPS (1536 SPF)
    Bit depth : 16 bits
    Compression mode : Lossy
    Stream size : 465 MiB (8%)
    Language : English
    Service kind : Complete Main
    Default : Yes
    Forced : No

    Text #1
    ID : 3
    Format : VobSub
    Muxing mode : zlib
    Codec ID : S_VOBSUB
    Codec ID/Info : Picture based subtitle format used on DVDs
    Duration : 2 h 44 min
    Bit rate : 13.3 kb/s
    Count of elements : 2828
    Stream size : 15.6 MiB (0%)
    Language : English
    Default : No
    Forced : No

    Text #2
    ID : 4
    Format : PGS
    Muxing mode : zlib
    Codec ID : S_HDMV/PGS
    Codec ID/Info : Picture based subtitle format used on BDs/HD-DVDs
    Duration : 2 h 44 min
    Bit rate : 60.3 kb/s
    Count of elements : 5656
    Stream size : 71.0 MiB (1%)
    Title : White
    Language : English
    Default : No
    Forced : No

    Text #3
    ID : 5
    Format : PGS
    Muxing mode : zlib
    Codec ID : S_HDMV/PGS
    Codec ID/Info : Picture based subtitle format used on BDs/HD-DVDs
    Duration : 2 h 44 min
    Bit rate : 60.3 kb/s
    Count of elements : 5656
    Stream size : 71.0 MiB (1%)
    Title : Yellow
    Language : English
    Default : No
    Forced : No

    Text #4
    ID : 6
    Format : VobSub
    Muxing mode : zlib
    Codec ID : S_VOBSUB
    Codec ID/Info : Picture based subtitle format used on DVDs
    Duration : 2 h 48 min
    Bit rate : 8 037 b/s
    Count of elements : 2307
    Stream size : 9.70 MiB (0%)
    Language : Thai
    Default : No
    Forced : No

    Text #5
    ID : 7
    Format : PGS
    Muxing mode : zlib
    Codec ID : S_HDMV/PGS
    Codec ID/Info : Picture based subtitle format used on BDs/HD-DVDs
    Duration : 2 h 48 min
    Bit rate : 38.1 kb/s
    Count of elements : 4614
    Stream size : 46.0 MiB (1%)
    Title : White
    Language : Thai
    Default : Yes
    Forced : No

    Text #6
    ID : 8
    Format : PGS
    Muxing mode : zlib
    Codec ID : S_HDMV/PGS
    Codec ID/Info : Picture based subtitle format used on BDs/HD-DVDs
    Duration : 2 h 48 min
    Bit rate : 38.1 kb/s
    Count of elements : 4614
    Stream size : 46.0 MiB (1%)
    Title : Yellow
    Language : Thai
    Default : No
    Forced : No










    Download: cornfile
    http://cornfile.com/6bfctiutkmm0
    Download: mekafile
    http://www.mekafile.com/dl.php?f=ddda4cc1J0pK

  2. The Following User Says Thank You to Duckload.us For This Useful Post:

    amorn wichian (11-19-2019)

  3. #2
    ขอบคุณครับผม
    เว็บดูหนังออนไลน์ ดูหนังใหม่ ดูหนัง ดูหนังฟรี www.Do-9.com

+ ตอบกลับกระทู้

ข้อมูลกระทู้

Users Browsing this Thread

ในขณะนี้มี 1 ท่านดูกระทู้อยู่. (0 สมาชิกและ 1 ผู้เยี่ยมชม)

     

กฎการโพสต์ข้อความ

  • ท่าน ไม่สามารถ ตั้งกระทู้ใหม่ได้
  • ท่าน ไม่สามารถ ตอบกระทู้ได้
  • ท่าน ไม่สามารถ แนบไฟล์ได้
  • ท่าน ไม่สามารถ แก้ไขข้อความโพสต์ได้
  • BB code สถานะ เปิด
  • Smilies สถานะ เปิด
  • [IMG] สถานะ เปิด
  • HTML สถานะ ปิด