+ ตอบกลับกระทู้
สรุปผลการค้นหา 1 ถึง 3 จากทั้งหมด 3
  1. #1
    Administrators รูปส่วนตัว Duckload.us
    สมัครเมื่อ
    Dec 2010
    โพสต์
    109,943
    Thanks
    7
    Thanked 115,314 Times in 52,768 Posts

    Question [ฝรั่ง]-Jarhead: Law of Return (2019) จาร์เฮด พลระห่ำสงครามนรก 4 - [พากย์ไทย+อังกฤษ] [บรรยายอังกฤษ] 1080p.BluRay.DTS.x264



    พันตรีโรนันแจ็คสัน (Devon Sawa) นักบินรบที่ประสบความสำเร็จสำหรับกองกำลังป้องกันประ เทศอิสราเอลและบุตรชายของวุฒิสมาชิกสหรัฐ (โรเบิร์ตแพทริค) ถูกยิงขณะบินผ่านน่านฟ้าของซีเรีย

    หลังจากรอดชีวิตจากการชนได้อย่างน่าอัศจรรย์แจ็คสันถ ูกจับโดยกลุ่มฮิซบุลเลาะห์ เรื่องราวที่น่าตื่นเต้นและทรงพลังที่เต็มไปด้วยแอ็ค ชั่นที่ยากลำบาก Jarhead: กฎแห่งการกลับมาดังต่อไปนี้กลุ่มทหารชั้นยอดนำโดยจ่า ฝูง Gunnery Dave Torres (Amaury Nolasco) ในขณะที่พวกเขาเสี่ยงชีวิตของพวกเขา ไม่เคยพบกัน




    Duration : 1 h 42 min
    Overall bit rate : 12.0 Mb/s
    Encoded date : UTC 2019-12-04 16:50:39
    Writing application : mkvmerge v40.0.0 ('Old Town Road + Pony') 64-bit
    Writing library : libebml v1.3.9 + libmatroska v1.5.2
    Cover : Yes
    Attachments : cover

    Video
    ID : 1
    Format : AVC
    Format/Info : Advanced Video Codec
    Format profile : [email protected]
    Format settings : CABAC / 5 Ref Frames
    Format settings, CABAC : Yes
    Format settings, Reference frames : 5 frames
    Codec ID : V_MPEG4/ISO/AVC
    Duration : 1 h 42 min
    Bit rate : 9 139 kb/s
    Width : 1 920 pixels
    Height : 816 pixels
    Display aspect ratio : 2.35:1
    Frame rate mode : Constant
    Frame rate : 23.976 (24000/1001) FPS
    Color space : YUV
    Chroma subsampling : 4:2:0
    Bit depth : 8 bits
    Scan type : Progressive
    Bits/(Pixel*Frame) : 0.243
    Stream size : 6.56 GiB (76%)
    Writing library : x264 core 158 r2984 3759fcb
    Encoding settings : cabac=1 / ref=5 / deblock=1:-3:-3 / analyse=0x3:0x113 / me=umh / subme=8 / psy=1 / psy_rd=1.00:0.00 / mixed_ref=1 / me_range=16 / chroma_me=1 / trellis=1 / 8x8dct=1 / cqm=0 / deadzone=21,11 / fast_pskip=1 / chroma_qp_offset=-2 / threads=25 / lookahead_threads=4 / sliced_threads=0 / nr=0 / decimate=1 / interlaced=0 / bluray_compat=0 / constrained_intra=0 / bframes=3 / b_pyramid=2 / b_adapt=1 / b_bias=0 / direct=3 / weightb=1 / open_gop=0 / weightp=2 / keyint=250 / keyint_min=23 / scenecut=40 / intra_refresh=0 / rc_lookahead=50 / rc=2pass / mbtree=1 / bitrate=9139 / ratetol=1.0 / qcomp=0.60 / qpmin=0 / qpmax=69 / qpstep=4 / cplxblur=20.0 / qblur=0.5 / ip_ratio=1.40 / aq=1:1.00
    Language : English
    Default : Yes
    Forced : No

    Audio #1
    ID : 2
    Format : DTS
    Format/Info : Digital Theater Systems
    Codec ID : A_DTS
    Duration : 1 h 42 min
    Bit rate mode : Constant
    Bit rate : 1 509 kb/s
    Channel(s) : 6 channels
    Channel layout : C L R Ls Rs LFE
    Sampling rate : 48.0 kHz
    Frame rate : 93.750 FPS (512 SPF)
    Bit depth : 24 bits
    Compression mode : Lossy
    Stream size : 1.08 GiB (13%)
    Language : English
    Default : No
    Forced : No

    Audio #2
    ID : 3
    Format : AC-3
    Format/Info : Audio Coding 3
    Commercial name : Dolby Digital
    Codec ID : A_AC3
    Duration : 1 h 42 min
    Bit rate mode : Constant
    Bit rate : 640 kb/s
    Channel(s) : 6 channels
    Channel layout : L R C LFE Ls Rs
    Sampling rate : 44.1 kHz
    Frame rate : 28.711 FPS (1536 SPF)
    Bit depth : 16 bits
    Compression mode : Lossy
    Stream size : 471 MiB (5%)
    Language : English
    Service kind : Complete Main
    Default : No
    Forced : No

    Audio #3
    ID : 4
    Format : AC-3
    Format/Info : Audio Coding 3
    Commercial name : Dolby Digital
    Codec ID : A_AC3
    Duration : 1 h 42 min
    Bit rate mode : Constant
    Bit rate : 640 kb/s
    Channel(s) : 6 channels
    Channel layout : L R C LFE Ls Rs
    Sampling rate : 44.1 kHz
    Frame rate : 28.711 FPS (1536 SPF)
    Bit depth : 16 bits
    Compression mode : Lossy
    Stream size : 471 MiB (5%)
    Language : Thai
    Service kind : Complete Main
    Default : Yes
    Forced : No

    Text #1
    ID : 5
    Format : VobSub
    Muxing mode : zlib
    Codec ID : S_VOBSUB
    Codec ID/Info : Picture based subtitle format used on DVDs
    Duration : 1 h 38 min
    Bit rate : 10.1 kb/s
    Count of elements : 1325
    Stream size : 7.10 MiB (0%)
    Language : English
    Default : Yes
    Forced : No

    Text #2
    ID : 6
    Format : PGS
    Muxing mode : zlib
    Codec ID : S_HDMV/PGS
    Codec ID/Info : Picture based subtitle format used on BDs/HD-DVDs
    Duration : 1 h 38 min
    Bit rate : 54.0 kb/s
    Count of elements : 2648
    Stream size : 38.1 MiB (0%)
    Title : Gray
    Language : English
    Default : No
    Forced : No

    Text #3
    ID : 7
    Format : PGS
    Muxing mode : zlib
    Codec ID : S_HDMV/PGS
    Codec ID/Info : Picture based subtitle format used on BDs/HD-DVDs
    Duration : 1 h 38 min
    Bit rate : 54.0 kb/s
    Count of elements : 2648
    Stream size : 38.1 MiB (0%)
    Title : White
    Language : English
    Default : No
    Forced : No

    Text #4
    ID : 8
    Format : PGS
    Muxing mode : zlib
    Codec ID : S_HDMV/PGS
    Codec ID/Info : Picture based subtitle format used on BDs/HD-DVDs
    Duration : 1 h 38 min
    Bit rate : 54.0 kb/s
    Count of elements : 2648
    Stream size : 38.1 MiB (0%)
    Title : Yellow
    Language : English
    Default : No
    Forced : No





    8.62 GB
    Download: cornfile
    http://cornfile.com/gw4fsqn541z3
    Download: mekafile
    http://www.mekafile.com/dl.php?f=8E7c29c2mYnP

    3.83 GB
    Download: cornfile
    http://cornfile.com/mzx17mzb4drs
    Download: mekafile
    http://www.mekafile.com/dl.php?f=Vsf682c2mXzf




    [ฝรั่ง]-Jarhead Trilogy (พลระห่ำ สงครามนรก 1-3)2005-2016 BluRay 1080p DTS x264-MiniBD.H.264.1080p. [Modified]-[พากย์ไทย บรรยายไทย]

  2. The Following 3 Users Say Thank You to Duckload.us For This Useful Post:

    apichartdear (12-06-2019), bigbang06 (12-05-2019), noi54 (12-05-2019)

  3. #2
    Senior Member
    สมัครเมื่อ
    Jun 2014
    โพสต์
    2,036
    Thanks
    0
    Thanked 0 Times in 0 Posts
    ขอบคุณครับ

  4. #3
    Senior Member
    สมัครเมื่อ
    Jul 2012
    โพสต์
    6,355
    Thanks
    0
    Thanked 0 Times in 0 Posts
    ขอบคุณมากจ้า

+ ตอบกลับกระทู้

ข้อมูลกระทู้

Users Browsing this Thread

ในขณะนี้มี 1 ท่านดูกระทู้อยู่. (0 สมาชิกและ 1 ผู้เยี่ยมชม)

     

กฎการโพสต์ข้อความ

  • ท่าน ไม่สามารถ ตั้งกระทู้ใหม่ได้
  • ท่าน ไม่สามารถ ตอบกระทู้ได้
  • ท่าน ไม่สามารถ แนบไฟล์ได้
  • ท่าน ไม่สามารถ แก้ไขข้อความโพสต์ได้
  • BB code สถานะ เปิด
  • Smilies สถานะ เปิด
  • [IMG] สถานะ เปิด
  • HTML สถานะ ปิด