+ ตอบกลับกระทู้
สรุปผลการค้นหา 1 ถึง 4 จากทั้งหมด 4
  1. #1
    Administrators รูปส่วนตัว Duckload.us
    สมัครเมื่อ
    Dec 2010
    โพสต์
    109,958
    Thanks
    7
    Thanked 115,387 Times in 52,782 Posts

    Question [NETFLIX] Dead Kids (2019) แผนร้ายไม่ตายดี [พากย์:ไทย+ฟิลิปปินส์][SUB:ไทย+อังกฤษ][1080p] [AC-3][h264][ซับไทยต้นฉบับNETFLIX PGS+Vobsub ]





    "วัยรุ่นที่เข้าสังคมไม่เก่งกลายเป็นเพื่อนกับกลุ่มเ ด็กแปลกแยกซึ่งวางแผนลักพาตัวเด็กที่รวยและหยิ่งที่ส ุดในโรงเรียน แต่แผนนี้อาจอันตรายถึงตาย"

    Code:
    Format                         : Matroska
    Format version                 : Version 4 / Version 2
    File size                      : 2.45 GiB
    Duration                       : 1 h 34 min
    Overall bit rate               : 3 731 kb/s
    Movie name                     : [email protected]
    Encoded date                   : UTC 2019-12-01 09:21:56
    Writing application            : mkvmerge v39.0.0 ('In The Waiting Line') 64-bit
    Writing library                : libebml v1.3.9 + libmatroska v1.5.2
    
    Video
    ID                             : 1
    Format                         : AVC
    Format/Info                    : Advanced Video Codec
    Format profile                 : [email protected]
    Format settings, CABAC         : Yes
    Format settings, RefFrames     : 3 frames
    Codec ID                       : V_MPEG4/ISO/AVC
    Duration                       : 1 h 34 min
    Bit rate                       : 2 376 kb/s
    Width                          : 1 920 pixels
    Height                         : 1 080 pixels
    Display aspect ratio           : 16:9
    Frame rate mode                : Constant
    Frame rate                     : 23.976 (24000/1001) FPS
    Color space                    : YUV
    Chroma subsampling             : 4:2:0
    Bit depth                      : 8 bits
    Scan type                      : Progressive
    Bits/(Pixel*Frame)             : 0.048
    Stream size                    : 1.56 GiB (64%)
    Default                        : Yes
    Forced                         : No
    Comment                        : NETFLIX BY ARGON
    
    Audio #1
    ID                             : 2
    Format                         : E-AC-3
    Format/Info                    : Enhanced Audio Coding 3
    Format settings, Endianness    : Big
    Codec ID                       : A_EAC3
    Duration                       : 1 h 34 min
    Bit rate mode                  : Constant
    Bit rate                       : 640 kb/s
    Channel(s)                     : 6 channels
    Channel positions              : Front: L C R, Side: L R, LFE
    Sampling rate                  : 48.0 kHz
    Frame rate                     : 187.500 FPS (256 SPF)
    Compression mode               : Lossy
    Stream size                    : 430 MiB (17%)
    Title                          : TH AC3
    Language                       : Thai
    Service kind                   : Complete Main
    Default                        : Yes
    Forced                         : No
    
    Audio #2
    ID                             : 3
    Format                         : E-AC-3
    Format/Info                    : Enhanced Audio Coding 3
    Format settings, Endianness    : Big
    Codec ID                       : A_EAC3
    Duration                       : 1 h 34 min
    Bit rate mode                  : Constant
    Bit rate                       : 640 kb/s
    Channel(s)                     : 6 channels
    Channel positions              : Front: L C R, Side: L R, LFE
    Sampling rate                  : 48.0 kHz
    Frame rate                     : 187.500 FPS (256 SPF)
    Compression mode               : Lossy
    Stream size                    : 430 MiB (17%)
    Title                          : Phi AC3
    Language                       : phi
    Service kind                   : Complete Main
    Default                        : No
    Forced                         : No
    
    Text #1
    ID                             : 4
    Format                         : PGS
    Muxing mode                    : zlib
    Codec ID                       : S_HDMV/PGS
    Codec ID/Info                  : Picture based subtitle format used on BDs/HD-DVDs
    Duration                       : 1 h 33 min
    Bit rate                       : 1 356 b/s
    Count of elements              : 62
    Stream size                    : 928 KiB (0%)
    Title                          : TH_PGS_Force
    Language                       : Thai
    Default                        : Yes
    Forced                         : No
    
    Text #2
    ID                             : 5
    Format                         : VobSub
    Muxing mode                    : zlib
    Codec ID                       : S_VOBSUB
    Codec ID/Info                  : Picture based subtitle format used on DVDs
    Duration                       : 1 h 33 min
    Bit rate                       : 277 b/s
    Count of elements              : 31
    Stream size                    : 190 KiB (0%)
    Title                          : TH_VOBSUB_Force
    Language                       : Thai
    Default                        : No
    Forced                         : No
    
    Text #3
    ID                             : 6
    Format                         : PGS
    Muxing mode                    : zlib
    Codec ID                       : S_HDMV/PGS
    Codec ID/Info                  : Picture based subtitle format used on BDs/HD-DVDs
    Duration                       : 1 h 33 min
    Bit rate                       : 56.0 kb/s
    Count of elements              : 2592
    Stream size                    : 37.4 MiB (1%)
    Title                          : TH_PGS_SUB
    Language                       : Thai
    Default                        : No
    Forced                         : No
    
    Text #4
    ID                             : 7
    Format                         : VobSub
    Muxing mode                    : zlib
    Codec ID                       : S_VOBSUB
    Codec ID/Info                  : Picture based subtitle format used on DVDs
    Duration                       : 1 h 33 min
    Bit rate                       : 11.5 kb/s
    Count of elements              : 1296
    Stream size                    : 7.66 MiB (0%)
    Title                          : TH_VOBSUB_SUB
    Language                       : Thai
    Default                        : No
    Forced                         : No
    
    Text #5
    ID                             : 8
    Format                         : VobSub
    Muxing mode                    : zlib
    Codec ID                       : S_VOBSUB
    Codec ID/Info                  : Picture based subtitle format used on DVDs
    Duration                       : 1 h 33 min
    Bit rate                       : 11.4 kb/s
    Count of elements              : 1296
    Stream size                    : 7.65 MiB (0%)
    Title                          : TH_VOBSUB_YELLOW_SUB
    Language                       : Thai
    Default                        : No
    Forced                         : No
    
    Text #6
    ID                             : 9
    Format                         : PGS
    Muxing mode                    : zlib
    Codec ID                       : S_HDMV/PGS
    Codec ID/Info                  : Picture based subtitle format used on BDs/HD-DVDs
    Duration                       : 1 h 31 min
    Bit rate                       : 44.8 kb/s
    Count of elements              : 2566
    Stream size                    : 29.3 MiB (1%)
    Title                          : EN_PGS
    Language                       : English
    Default                        : No
    Forced                         : No
    
    "พร้อมคำบรรยายพิเศษ ของเสียงไทย  ตามแบบฉบับของNETFLIX"












    Download: cornfile
    http://cornfile.com/16t6i6ylokf9
    Download: mekafile
    http://www.mekafile.com/dl.php?f=sv9142c2iNmH

  2. The Following 3 Users Say Thank You to Duckload.us For This Useful Post:

    apichartdear (12-06-2019), Jodz14 (12-24-2019), Wesker_TOT (12-06-2019)

  3. #2
    Senior Member
    สมัครเมื่อ
    Jun 2014
    โพสต์
    2,034
    Thanks
    0
    Thanked 0 Times in 0 Posts
    ขอบคุณครับ

  4. #3
    Senior Member
    สมัครเมื่อ
    Jul 2014
    โพสต์
    182
    Thanks
    5
    Thanked 0 Times in 0 Posts
    ขอบคุณครับ

  5. #4
    Senior Member
    สมัครเมื่อ
    Jul 2013
    โพสต์
    145
    Thanks
    0
    Thanked 0 Times in 0 Posts
    ชอบคุณครับ

+ ตอบกลับกระทู้

ข้อมูลกระทู้

Users Browsing this Thread

ในขณะนี้มี 1 ท่านดูกระทู้อยู่. (0 สมาชิกและ 1 ผู้เยี่ยมชม)

     

กฎการโพสต์ข้อความ

  • ท่าน ไม่สามารถ ตั้งกระทู้ใหม่ได้
  • ท่าน ไม่สามารถ ตอบกระทู้ได้
  • ท่าน ไม่สามารถ แนบไฟล์ได้
  • ท่าน ไม่สามารถ แก้ไขข้อความโพสต์ได้
  • BB code สถานะ เปิด
  • Smilies สถานะ เปิด
  • [IMG] สถานะ เปิด
  • HTML สถานะ ปิด