+ ตอบกลับกระทู้
สรุปผลการค้นหา 1 ถึง 1 จากทั้งหมด 1
  1. #1
    Administrators รูปส่วนตัว Duckload.us
    สมัครเมื่อ
    Dec 2010
    โพสต์
    111,263
    Thanks
    7
    Thanked 116,715 Times in 53,142 Posts

    Angry [ฝรั่ง]-ใหม่ Doctor Sleep (2019) : ลางนรก [1080p.WEB-DL.DD5.1.x264][พากย์ไทย E-AC3 5.1 + เสียงอังกฤษ AC3 5.1][บรรยายไทยมาสเตอร์ + อังกฤษ]



    ปี 1980 เป็นปีที่มีการฉายภาพยนตร์เรื่องหนึ่งที่กลายเป็นภาค ต้นของ Doctor Sleep ภาพยนตร์เรื่องนั้นเป็นหนังสยองขวัญที่กลายเป็นตำนาน มีฉากจำ เรื่องราวของโรงแรมนรกที่ครอบครัวหนึ่งไปพักอาศัยอย่ างโดดเดี่ยวท่ามกลางหิมะและความเหน็บหนาว The Shining ที่ใครหลายคนเพิ่งได้มาดูตามหลัง

    จากผลงานการกำกับของชายผู้ซึ่งหลายคนนำมาเป็นต้นแบบ Stanley Kubrick สู่ภาคต่อภายใต้การคุมงานของ ที่หยิบเอาผลงานขึ้นหิ้งของ Stephen King มาเล่าในสไตล์ใหม่ที่ยังไม่ทิ้งฟีลลิ่งแบบเดิม

    Doctor Sleep : ด็อกเตอร์ สลีป ลางนรก

    วันที่เข้าฉาย 7 พฤศจิกายน 2562 ในโรงภาพยนตร์

    ข้อมูลหนัง :

    ประเภท: ดราม่า แฟนตาซี สยองขวัญ

    ความยาว: 2 ชั่วโมง 31 นาที

    ผู้กำกับ: Mike Flanagan

    เขียนบทโดย: Mike Flanagan (ฉบับภาพยนตร์ โดยอ้างอิงจากนิยายของ Stephen King)

    นักแสดง: Rebecca Ferguson, Ewan McGregor, Jacob Tremblay

    เรื่องย่อ :

    Doctor Sleep ด็อกเตอร์ สลีป จะเป็นเรื่องราวหลังจากเหตุการณ์ใน The Shining ในอีก 40 ปีถัดมาจากเหตุการณ์สยอง ณ โรงแรมโอเวอร์ลุค ที่ยังคงทำให้แดนรู้สึกหวาดกลัวจนถึงทุกวันนี้ แดนพยายามหาวิธีให้ตัวเองได้ใช้ชีวิตอย่างปกติสุขที่ สุด แต่ความสงบสุขนั้นกลับพังทลายลงเมื่อแดนได้เจอกับ แอบรา หญิงสาวจิตใจกล้าหาญเจ้าของพลังวิเศษเรียกว่า “ไชน์” ที่เดินทางออกตามหาแดนเพื่อขอความช่วยเหลือให้ร่วมต่ อสู้กับ โรส เดอะ แฮท ผู้เหี้ยมโหด และเดอะ ทรู น็อต กลุ่มลัทธิคัลต์ลูกสมุนของเธอ ที่ออกตามล่าเด็กผู้บริสุทธิ์เพื่อชีวิตอมตะของตัวเอ ง

    จากคนแปลกหน้ากลายเป็นพันธมิตร ในระหว่างที่แดนและแอบราต้องเอาชีวิตเข้าเสี่ยงอันตร ายในสงครามใหญ่กับโรส จิตใจอันบริสุทธิ์และกล้าหาญของแอบรากลับปลุกพลังลึก ลับภายในตัวของแดนขึ้นมาอย่างที่ไม่เคยเป็นมาก่อน แต่นั่นทำให้เหล่าภูติผีวิญญาณร้ายในอดีตฟื้นคืน และทำให้แดนต้องเผชิญหน้ากับความหวาดกลัวอีกครั้ง





    Format : Matroska
    Format version : Version 4
    File size : 6.25 GiB
    Duration : 2 h 32 min
    Overall bit rate : 5 859 kb/s
    Movie name : By : Mr.John

    Video
    ID : 1
    Format : AVC
    Format/Info : Advanced Video Codec
    Format profile : [email protected]
    Format settings : CABAC / 2 Ref Frames
    Format settings, CABAC : Yes
    Format settings, Reference : 2 frames
    Codec ID : V_MPEG4/ISO/AVC
    Duration : 2 h 32 min
    Bit rate : 5 078 kb/s
    Width : 1 920 pixels
    Height : 1 080 pixels
    Display aspect ratio : 16:9
    Frame rate mode : Constant
    Frame rate : 23.976 (24000/1001) FPS
    Color space : YUV
    Chroma subsampling : 4:2:0
    Bit depth : 8 bits
    Scan type : Progressive
    Bits/(Pixel*Frame) : 0.102
    Stream size : 5.42 GiB (87%)
    Writing library : x264 core 155 r2901 7d0ff22
    Language : English
    Default : Yes
    Forced : No
    Color range : Limited
    Color primaries : BT.709
    Transfer characteristics : BT.709
    Matrix coefficients : BT.709

    Audio #1
    ID : 2
    Format : E-AC-3
    Format/Info : Enhanced AC-3
    Commercial name : Dolby Digital Plus
    Codec ID : A_EAC3
    Duration : 2 h 32 min
    Bit rate mode : Constant
    Bit rate : 384 kb/s
    Channel(s) : 6 channels
    Channel layout : L R C LFE Ls Rs
    Sampling rate : 48.0 kHz
    Frame rate : 31.250 FPS (1536 SPF)
    Compression mode : Lossy
    Stream size : 420 MiB (7%)
    Title : Thai 5.1 By : Mr.John
    Language : Thai
    Service kind : Complete Main
    Default : No
    Forced : No

    Audio #2
    ID : 3
    Format : AC-3
    Format/Info : Audio Coding 3
    Commercial name : Dolby Digital
    Codec ID : A_AC3
    Duration : 2 h 32 min
    Bit rate mode : Constant
    Bit rate : 384 kb/s
    Channel(s) : 6 channels
    Channel layout : L R C LFE Ls Rs
    Sampling rate : 48.0 kHz
    Frame rate : 31.250 FPS (1536 SPF)
    Compression mode : Lossy
    Stream size : 420 MiB (7%)
    Title : English 5.1
    Language : English
    Service kind : Complete Main
    Default : Yes
    Forced : No

    Text #1
    ID : 4
    Format : PGS
    Muxing mode : zlib
    Codec ID : S_HDMV/PGS
    Codec ID/Info : Picture based subtitle format used on BDs/HD-DVDs
    Duration : 2 h 31 min
    Bit rate : 23.3 kb/s
    Count of elements : 3308
    Stream size : 25.3 MiB (0%)
    Title : Thai 1080p
    Language : Thai
    Default : No
    Forced : No

    Text #2
    ID : 5
    Format : UTF-8
    Codec ID : S_TEXT/UTF8
    Codec ID/Info : UTF-8 Plain Text
    Duration : 2 h 25 min
    Bit rate : 37 b/s
    Count of elements : 1693
    Stream size : 40.4 KiB (0%)
    Language : English
    Default : Yes
    Forced : No





    http://cornfile.com/se5wnsqwc4ko

  2. The Following User Says Thank You to Duckload.us For This Useful Post:

    jackjangri (เมื่อวานนี้)

+ ตอบกลับกระทู้

ข้อมูลกระทู้

Users Browsing this Thread

ในขณะนี้มี 1 ท่านดูกระทู้อยู่. (0 สมาชิกและ 1 ผู้เยี่ยมชม)

     

กฎการโพสต์ข้อความ

  • ท่าน ไม่สามารถ ตั้งกระทู้ใหม่ได้
  • ท่าน ไม่สามารถ ตอบกระทู้ได้
  • ท่าน ไม่สามารถ แนบไฟล์ได้
  • ท่าน ไม่สามารถ แก้ไขข้อความโพสต์ได้
  • BB code สถานะ เปิด
  • Smilies สถานะ เปิด
  • [IMG] สถานะ เปิด
  • HTML สถานะ ปิด