+ ตอบกลับกระทู้
สรุปผลการค้นหา 1 ถึง 4 จากทั้งหมด 4
  1. #1
    Administrators รูปส่วนตัว Duckload.us
    สมัครเมื่อ
    Dec 2010
    โพสต์
    112,806
    Thanks
    7
    Thanked 118,668 Times in 53,694 Posts

    Question (ฝรั่ง.ใหม่.ไทยมาสเตอร์)-DEATH KISS (2018)-[BluRay.1080p][ Sound:Eng /Thai AC3 2.0:Master][SUB:Eng.PGS]



    Death Kiss
    A vigilante with a mysterious past becomes a one-man army in a crime-infested town as he takes the law into his own hands, at the same time protecting a young mother and her daughter. He sets his sights on a local kingpin, setting up an action-packed and fateful confrontation.
    เขาคือศาลเตี้ยที่มีอดีตลึกลับเข้าไปในเมืองที่เต็มไ ปด้วยอาชญากรรมและความหวาดกลัว จากนั้นเขานำกฎหมายไปไว้ในมือของเขาเองเพื่อเขาจะได้ ช่วยชีวิตและปกป้องแม่และลูกของเธอ

    Format : Matroska
    Format version : Version 4
    File size : 3.68 GiB
    Duration : 1 h 28 min
    Overall bit rate : 5 979 kb/s
    Movie name : Death.Kiss.2018.1080p.BluRay_©GOLD CUP™

    Video
    ID : 1
    Format : AVC
    Format/Info : Advanced Video Codec
    Format profile : [email protected]
    Format settings : CABAC / 1 Ref Frames
    Format settings, CABAC : Yes
    Format settings, Reference : 1 frame
    Format settings, GOP : M=1, N=25
    Codec ID : V_MPEG4/ISO/AVC
    Duration : 1 h 28 min
    Bit rate mode : Constant
    Bit rate : 5 000 kb/s
    Width : 1 920 pixels
    Height : 1 072 pixels
    Display aspect ratio : 16:9
    Frame rate mode : Constant
    Frame rate : 29.970 (30000/1001) FPS
    Color space : YUV
    Chroma subsampling : 4:2:0
    Bit depth : 8 bits
    Scan type : Progressive
    Bits/(Pixel*Frame) : 0.081
    Stream size : 3.08 GiB (84%)
    Title : Death.Kiss.2018.1080p.BluRay_©GOLD CUP™
    Language : English
    Default : Yes
    Forced : No

    Audio #1
    ID : 2
    Format : AC-3
    Format/Info : Audio Coding 3
    Commercial name : Dolby Digital
    Codec ID : A_AC3
    Duration : 1 h 28 min
    Bit rate mode : Constant
    Bit rate : 320 kb/s
    Channel(s) : 2 channels
    Channel layout : L R
    Sampling rate : 44.1 kHz
    Frame rate : 28.711 FPS (1536 SPF)
    Compression mode : Lossy
    Stream size : 202 MiB (5%)
    Title : 2.0 AC3 TH 320k 201m_©GOLD CUP™
    Language : Thai
    Service kind : Complete Main
    Default : Yes
    Forced : No

    Audio #2
    ID : 3
    Format : AC-3
    Format/Info : Audio Coding 3
    Commercial name : Dolby Digital
    Codec ID : A_AC3
    Duration : 1 h 28 min
    Bit rate mode : Constant
    Bit rate : 640 kb/s
    Channel(s) : 2 channels
    Channel layout : L R
    Sampling rate : 44.1 kHz
    Frame rate : 28.711 FPS (1536 SPF)
    Compression mode : Lossy
    Stream size : 404 MiB (11%)
    Title : 2.0 AC3 EN 640k 403m_©GOLD CUP™
    Language : English
    Service kind : Complete Main
    Default : No
    Forced : No

    Text #1
    ID : 4
    Format : PGS
    Muxing mode : zlib
    Codec ID : S_HDMV/PGS
    Codec ID/Info : Picture based subtitle format used on BDs/HD-DVDs
    Duration : 1 h 23 min
    Bit rate : 17.0 kb/s
    Count of elements : 1832
    Stream size : 10.2 MiB (0%)
    Title : EN.PGS.Green.80-55-10_©GOLD CUP™
    Language : English
    Default : Yes
    Forced : No

    Text #2
    ID : 5
    Format : PGS
    Muxing mode : zlib
    Codec ID : S_HDMV/PGS
    Codec ID/Info : Picture based subtitle format used on BDs/HD-DVDs
    Duration : 1 h 25 min
    Bit rate : 18.7 kb/s
    Count of elements : 2224
    Stream size : 11.4 MiB (0%)
    Title : EN.,SDH.PGS.Yellow.80-55-10_©GOLD CUP™
    Language : English
    Default : No
    Forced : No






    Download: cornfile
    http://cornfile.com/5z2d4vutarjw
    Download: mekafile
    http://www.mekafile.com/dl.php?f=NQ5359c5rBfL

  2. The Following 2 Users Say Thank You to Duckload.us For This Useful Post:

    chock (02-20-2020), Wesker_TOT (02-19-2020)

  3. #2
    Senior Member
    สมัครเมื่อ
    Dec 2013
    โพสต์
    2,036
    Thanks
    3,957
    Thanked 0 Times in 0 Posts
    ขอบคุณครับ...

  4. #3
    Senior Member
    สมัครเมื่อ
    Jun 2014
    โพสต์
    3,105
    Thanks
    0
    Thanked 0 Times in 0 Posts
    ขอบคุณครับ

  5. #4
    Senior Member
    สมัครเมื่อ
    Jul 2013
    โพสต์
    327
    Thanks
    0
    Thanked 0 Times in 0 Posts
    ขอบคุณครับ

+ ตอบกลับกระทู้

ข้อมูลกระทู้

Users Browsing this Thread

ในขณะนี้มี 1 ท่านดูกระทู้อยู่. (0 สมาชิกและ 1 ผู้เยี่ยมชม)

     

กฎการโพสต์ข้อความ

  • ท่าน ไม่สามารถ ตั้งกระทู้ใหม่ได้
  • ท่าน ไม่สามารถ ตอบกระทู้ได้
  • ท่าน ไม่สามารถ แนบไฟล์ได้
  • ท่าน ไม่สามารถ แก้ไขข้อความโพสต์ได้
  • BB code สถานะ เปิด
  • Smilies สถานะ เปิด
  • [IMG] สถานะ เปิด
  • HTML สถานะ ปิด