+ ตอบกลับกระทู้
สรุปผลการค้นหา 1 ถึง 5 จากทั้งหมด 5
  1. #1
    Administrators รูปส่วนตัว Duckload.us
    สมัครเมื่อ
    Dec 2010
    โพสต์
    112,788
    Thanks
    7
    Thanked 118,649 Times in 53,690 Posts

    Question (ฝรั่ง.ใหม่.ไทยมาสเตอร์)-Ford v Ferrari (2019) ใหญ่ชนยักษ์ ซิ่งทะลุไมล์-[BluRay.1080p][ Sound:Eng AC3 5.1/Thai 2.0:Master][SUB:Eng/Thai.PGS]



    หนังรถซิ่งอิงประวัติศาสตร์ในยุค 60 ว่าด้วยการแข่งรถระดับโลกในตำนาน เลอ ม็องส์ 24 เมื่อปี 1966 เมื่อค่ายรถยนต์ใหญ่ในอเมริกาอย่างฟอร์ด ที่ต้องงัดทุกกลเม็ดเพื่อสร้างรถแข่งที่จะสามารถเอาช นะเฟอร์รารี ยานยนต์เจ้ายักษ์ในอิตาลีให้ราบคาบในสนามนี้ให้จงได้ ร้อนถึง เคน ไมล์ส วิศวกรและนักขับรถซิ่งชาวอังกฤษ ต้องร่วมมือกับแคร์โรล เชลบี้ นักออกแบบรถของฟอร์ด ช่วยกันสร้างม้าเหล็ก GT40 Mark II บรรพบุรุษของรถซิ่ง Ford GT ในทุกวันนี้
    จากเรื่องจริงของการแข่งขันชิงความเป็นที่หนึ่งระหว่ างสองยักษ์ใหญ่แห่งวงการรถยนต์ ฟอร์ด (Ford) และ เฟอร์รารี่ (Ferrari) ในการแข่งขันรถซิ่งระดับโลก เลอม็องส์ (Le Mans) เมื่อปี 1966 เมื่อนักออกแบบรถซิ่ง แคร์โรล เชลบี้ (แมตต์ เดมอน) และนักซิ่งหัวรั้นอย่าง เคน ไมล์ส (คริสเตียน เบล) ที่ต้องร่วมกันฝ่าฟันทั้งการแทรกแซงขององค์กรใหญ่และ กฏของฟิสิกส์เพื่อปฏิวัติวงการเจ้าความเร็วกับสนามแข ่งสุดหฤโหดอย่าง Le Mans 66

    Format : Matroska
    Format version : Version 4
    File size : 3.99 GiB
    Duration : 2 h 32 min
    Overall bit rate : 3 741 kb/s
    Movie name : Ford.v.Ferrari.2019.1080p.BluRay.H264._©GOLD CUP™

    Video
    ID : 1
    Format : AVC
    Format/Info : Advanced Video Codec
    Format profile : [email protected]
    Format settings : CABAC / 1 Ref Frames
    Format settings, CABAC : Yes
    Format settings, Reference : 1 frame
    Format settings, GOP : M=1, N=25
    Codec ID : V_MPEG4/ISO/AVC
    Duration : 2 h 32 min
    Bit rate mode : Constant
    Bit rate : 3 000 kb/s
    Width : 1 920 pixels
    Height : 808 pixels
    Display aspect ratio : 2.40:1
    Frame rate mode : Constant
    Frame rate : 29.970 (30000/1001) FPS
    Color space : YUV
    Chroma subsampling : 4:2:0
    Bit depth : 8 bits
    Scan type : Progressive
    Bits/(Pixel*Frame) : 0.065
    Stream size : 3.19 GiB (80%)
    Title : Ford.v.Ferrari.2019.1080p.BluRay.H264._©GOLD CUP™
    Language : English
    Default : Yes
    Forced : No

    Audio #1
    ID : 2
    Format : AC-3
    Format/Info : Audio Coding 3
    Commercial name : Dolby Digital
    Codec ID : A_AC3
    Duration : 2 h 32 min
    Bit rate mode : Constant
    Bit rate : 192 kb/s
    Channel(s) : 2 channels
    Channel layout : L R
    Sampling rate : 44.1 kHz
    Frame rate : 28.711 FPS (1536 SPF)
    Compression mode : Lossy
    Stream size : 210 MiB (5%)
    Title : 2.0 AC3 TH 192k 209m_©GOLD CUP™
    Language : Thai
    Service kind : Complete Main
    Default : Yes
    Forced : No

    Audio #2
    ID : 3
    Format : AC-3
    Format/Info : Audio Coding 3
    Commercial name : Dolby Digital
    Codec ID : A_AC3
    Duration : 2 h 32 min
    Bit rate mode : Constant
    Bit rate : 512 kb/s
    Channel(s) : 6 channels
    Channel layout : L R C LFE Ls Rs
    Sampling rate : 44.1 kHz
    Frame rate : 28.711 FPS (1536 SPF)
    Compression mode : Lossy
    Stream size : 559 MiB (14%)
    Title : 5.1 AC3 EN 512k 558m_©GOLD CUP™
    Language : English
    Service kind : Complete Main
    Default : No
    Forced : No

    Text #1
    ID : 4
    Format : PGS
    Muxing mode : zlib
    Codec ID : S_HDMV/PGS
    Codec ID/Info : Picture based subtitle format used on BDs/HD-DVDs
    Duration : 2 h 31 min
    Bit rate : 20.0 kb/s
    Count of elements : 4138
    Stream size : 21.7 MiB (1%)
    Title : TH.PGS.white.73-70-10_©GOLD CUP™
    Language : Thai
    Default : Yes
    Forced : No

    Text #2
    ID : 5
    Format : PGS
    Muxing mode : zlib
    Codec ID : S_HDMV/PGS
    Codec ID/Info : Picture based subtitle format used on BDs/HD-DVDs
    Duration : 2 h 25 min
    Bit rate : 26.2 kb/s
    Count of elements : 4622
    Stream size : 27.2 MiB (1%)
    Title : EN.PGS.yellow.85-60-10_©GOLD CUP™
    Language : English
    Default : No
    Forced : No

    Text #3
    ID : 6
    Format : PGS
    Muxing mode : zlib
    Codec ID : S_HDMV/PGS
    Codec ID/Info : Picture based subtitle format used on BDs/HD-DVDs
    Duration : 2 h 26 min
    Bit rate : 30.8 kb/s
    Count of elements : 5230
    Stream size : 32.4 MiB (1%)
    Title : EN.SDH.PGS.green.85-60-10_©GOLD CUP™
    Language : English
    Default : No
    Forced : No

    Menu
    00:00:00.000 : en:1
    00:05:51.000 : en:2
    00:17:04.000 : en:3
    00:26:00.000 : en:4
    00:34:21.000 : en:5
    00:46:13.000 : en:6
    00:56:03.000 : en:7
    01:04:57.000 : en:8
    01:14:27.000 : en:9
    01:24:48.000 : en:10
    01:31:50.000 : en:11
    01:43:24.000 : en:12
    01:56:08.000 : en:13
    02:09:11.000 : en:14





    Download: cornfile
    http://cornfile.com/lln8ct7fzrft
    Download: mekafile
    http://www.mekafile.com/dl.php?f=oJ8eb9c5zfqw
    or
    http://www.mekafile.com/dl.php?f=FC74e7c5zjHo

  2. The Following 4 Users Say Thank You to Duckload.us For This Useful Post:

    bigbang06 (02-20-2020), jangska (02-21-2020), noi54 (02-21-2020), Wesker_TOT (02-20-2020)

  3. #2
    Senior Member
    สมัครเมื่อ
    Dec 2013
    โพสต์
    2,036
    Thanks
    3,957
    Thanked 0 Times in 0 Posts
    ขอบคุณครับ...

  4. #3
    Senior Member
    สมัครเมื่อ
    Jun 2014
    โพสต์
    3,094
    Thanks
    0
    Thanked 0 Times in 0 Posts
    ขอบคุณครับ

  5. #4
    Senior Member
    สมัครเมื่อ
    Jul 2012
    โพสต์
    6,614
    Thanks
    0
    Thanked 0 Times in 0 Posts
    ขอบคุณมากจ้า

  6. #5
    Senior Member
    สมัครเมื่อ
    Jul 2013
    โพสต์
    327
    Thanks
    0
    Thanked 0 Times in 0 Posts
    เสียงไทยมาแล้ว ขอบคุณครับ

+ ตอบกลับกระทู้

ข้อมูลกระทู้

Users Browsing this Thread

ในขณะนี้มี 1 ท่านดูกระทู้อยู่. (0 สมาชิกและ 1 ผู้เยี่ยมชม)

     

กฎการโพสต์ข้อความ

  • ท่าน ไม่สามารถ ตั้งกระทู้ใหม่ได้
  • ท่าน ไม่สามารถ ตอบกระทู้ได้
  • ท่าน ไม่สามารถ แนบไฟล์ได้
  • ท่าน ไม่สามารถ แก้ไขข้อความโพสต์ได้
  • BB code สถานะ เปิด
  • Smilies สถานะ เปิด
  • [IMG] สถานะ เปิด
  • HTML สถานะ ปิด