+ ตอบกลับกระทู้
สรุปผลการค้นหา 1 ถึง 3 จากทั้งหมด 3
  1. #1
    Administrators รูปส่วนตัว Duckload.us
    สมัครเมื่อ
    Dec 2010
    โพสต์
    112,788
    Thanks
    7
    Thanked 118,648 Times in 53,690 Posts

    Question [จีน]-[* ใหม่ *] The Kings Avatar: For the Glory (2020) เทพยุทธ์เซียนกลอรี่ [* 1080p.HDRip.x264.AC3.THR2.0 *] [พากย์ไทยโรง 2.0 + เสียงจีน 2.0] [บรรยายจีนฝัง] [ไฟล์เล็กคุณภาพ!!]



    เรื่องย่อ : The King's Avatar For the Glory ภาพยนตร์จากนิยายบนโลกออนไลน์ยอดฮิต สู่การเป็นอนิเมะ E-Sports ที่เล่าเรื่องราวจุดเริ่มต้นสู่เส้นทางแห่งเทพของ อี๋เยี่ยจื่อชิว ผ่านตัวละครที่ชื่อว่า เยี่ยชิว นักกีฬาอีสปอร์ตมืออาชีพแห่งสโมสรเจียซื่อ ผู้เป็นตำนานแห่งวงการเกมกลอรี่ เขาได้สร้างตัวละครระดับเทพอี๋เยี่ยจือชิว คว้าแชมป์ถึง 3 สมัย แต่ด้วยเหตุผลบางอย่างทำให้เขาต้องลาออกจากสโมสรเจีย ซื่อ!!


    Video
    ID : 1
    Format : AVC
    Format/Info : Advanced Video Codec
    Format profile : [email protected]
    Format settings, CABAC : Yes
    Format settings, RefFrames : 4 frames
    Codec ID : V_MPEG4/ISO/AVC
    Duration : 1 h 38 min
    Bit rate : 4 995 kb/s
    Width : 1 920 pixels
    Height : 800 pixels
    Display aspect ratio : 2.40:1
    Frame rate mode : Constant
    Frame rate : 24.000 FPS
    Color space : YUV
    Chroma subsampling : 4:2:0
    Bit depth : 8 bits
    Scan type : Progressive
    Bits/(Pixel*Frame) : 0.136
    Stream size : 3.44 GiB (94%)
    Title : The.Kings.Avatar.For.the.Glory.2019.1080p.HDRip.x2 64.AC3.THR2.0_HeRMineZ
    Writing library : Provided by www.letv.com :: H.264/MPEG-4 AVC codec -V 1.6.08
    Default : Yes
    Forced : No

    Audio #1
    ID : 2
    Format : AC-3
    Format/Info : Audio Coding 3
    Format settings, Endianness : Big
    Codec ID : A_AC3
    Duration : 1 h 38 min
    Bit rate mode : Constant
    Bit rate : 192 kb/s
    Channel(s) : 2 channels
    Channel positions : Front: L R
    Sampling rate : 48.0 kHz
    Frame rate : 31.250 FPS (1536 SPF)
    Bit depth : 16 bits
    Compression mode : Lossy
    Delay relative to video : -46 ms
    Stream size : 135 MiB (4%)
    Title : Thai Rong 2.0 Modified By HeRMineZ @192 Kbps
    Language : Thai
    Service kind : Complete Main
    Default : Yes
    Forced : No

    Audio #2
    ID : 3
    Format : AAC
    Format/Info : Advanced Audio Codec
    Format profile : LC
    Codec ID : A_AAC
    Duration : 1 h 38 min
    Bit rate : 128 kb/s
    Channel(s) : 2 channels
    Channel positions : Front: L R
    Sampling rate : 44.1 kHz
    Frame rate : 43.066 FPS (1024 SPF)
    Compression mode : Lossy
    Delay relative to video : -46 ms
    Stream size : 90.2 MiB (2%)
    Title : Chinese 2.0 @128 Kbps
    Language : Chinese
    Default : No
    Forced : No












    Download: cornfile
    http://cornfile.com/2pib57xnbrd6
    Download: mekafile
    http://www.mekafile.com/dl.php?f=eq3205c5MsZ4

  2. The Following User Says Thank You to Duckload.us For This Useful Post:

    Wesker_TOT (02-27-2020)

  3. #2
    Senior Member
    สมัครเมื่อ
    Dec 2013
    โพสต์
    2,036
    Thanks
    3,957
    Thanked 0 Times in 0 Posts
    ขอบคุณครับ...

  4. #3
    Senior Member
    สมัครเมื่อ
    Jun 2014
    โพสต์
    3,094
    Thanks
    0
    Thanked 0 Times in 0 Posts
    ขอบคุณครับ

+ ตอบกลับกระทู้

ข้อมูลกระทู้

Users Browsing this Thread

ในขณะนี้มี 1 ท่านดูกระทู้อยู่. (0 สมาชิกและ 1 ผู้เยี่ยมชม)

     

กฎการโพสต์ข้อความ

  • ท่าน ไม่สามารถ ตั้งกระทู้ใหม่ได้
  • ท่าน ไม่สามารถ ตอบกระทู้ได้
  • ท่าน ไม่สามารถ แนบไฟล์ได้
  • ท่าน ไม่สามารถ แก้ไขข้อความโพสต์ได้
  • BB code สถานะ เปิด
  • Smilies สถานะ เปิด
  • [IMG] สถานะ เปิด
  • HTML สถานะ ปิด