+ ตอบกลับกระทู้
สรุปผลการค้นหา 1 ถึง 3 จากทั้งหมด 3
  1. #1
    Administrators รูปส่วนตัว Duckload.us
    สมัครเมื่อ
    Dec 2010
    โพสต์
    114,610
    Thanks
    7
    Thanked 120,942 Times in 54,365 Posts

    Question [ฝรั่ง]-Coffee & Kareem=={DDP 5.1 Atmos sub Thai Netflix]- -WEB-DL.H.264.1080p. [Rip]-[Soundtrack บรรยายไทย]



    Sound : Eng DDP 5.1 Atmos

    Subtitle : Thai /ENG SRT และภาษาอื่นๆ




    คอฟฟี่กับคารีม

    2020 18+ 1 ชั่วโมง 28 นาที ภาพยนตร์อเมริกัน


    ตำรวจสุดเด๋อแห่งดีทรอยต์พยายามสานสัมพันธ์กับลูกชาย ปากเสียของแฟนสาว แต่กลับต้องมาจับมือกันไขคดีสมรู้ร่วมคิด
    นักแสดงนำ:เอ็ด เฮล์มส์,ทาราจิ พี. เฮนสัน,เทอร์เรนซ์ ลิตเทิล การ์เดนไฮ

    Code:
    Format                      : Matroska
    Format version              : Version 4
    File size                   : 2.78 GiB
    Duration                    : 1 h 28 min
    Overall bit rate mode       : Variable
    Overall bit rate            : 4 500 kb/s
    Encoded date                : UTC 2020-04-03 13:21:54
    Writing application         : mkvmerge v44.0.0 ('Domino') 64-bit
    Writing library             : libebml v1.3.10 + libmatroska v1.5.2
    
    Video
    ID                          : 1
    Format                      : AVC
    Format/Info                 : Advanced Video Codec
    Format profile              : [email protected]
    Format settings             : CABAC / 1 Ref Frames
    Format settings, CABAC      : Yes
    Format settings, Reference  : 1 frame
    Codec ID                    : V_MPEG4/ISO/AVC
    Duration                    : 1 h 28 min
    Bit rate mode               : Variable
    Bit rate                    : 3 645 kb/s
    Maximum bit rate            : 10.9 Mb/s
    Width                       : 1 920 pixels
    Height                      : 800 pixels
    Display aspect ratio        : 2.40:1
    Frame rate mode             : Constant
    Frame rate                  : 23.976 (23976/1000) FPS
    Original frame rate         : 23.976 (24000/1001) FPS
    Color space                 : YUV
    Chroma subsampling          : 4:2:0
    Bit depth                   : 8 bits
    Scan type                   : Progressive
    Bits/(Pixel*Frame)          : 0.099
    Stream size                 : 2.25 GiB (81%)
    Language                    : English
    Default                     : Yes
    Forced                      : No
    
    Audio
    ID                          : 2
    Format                      : E-AC-3 JOC
    Format/Info                 : Enhanced AC-3 with Joint Object Coding
    Commercial name             : Dolby Digital Plus with Dolby Atmos
    Codec ID                    : A_EAC3
    Duration                    : 1 h 28 min
    Bit rate mode               : Constant
    Bit rate                    : 768 kb/s
    Channel(s)                  : 6 channels
    Channel layout              : L R C LFE Ls Rs
    Sampling rate               : 48.0 kHz
    Frame rate                  : 31.250 FPS (1536 SPF)
    Compression mode            : Lossy
    Stream size                 : 486 MiB (17%)
    Title                       : AC-3 English
    Language                    : English
    Service kind                : Complete Main
    Default                     : Yes
    Forced                      : No
    Complexity index            : 16
    Number of dynamic objects   : 15
    Bed channel count           : 1 channel
    Bed channel configuration   : LFE
    
    Text #1
    ID                          : 3
    Format                      : VobSub
    Muxing mode                 : zlib
    Codec ID                    : S_VOBSUB
    Codec ID/Info               : Picture based subtitle format used on DVDs
    Duration                    : 1 h 27 min
    Bit rate                    : 19.5 kb/s
    Count of elements           : 1708
    Stream size                 : 12.2 MiB (0%)
    Title                       : Sub Thai 1080p
    Language                    : Thai
    Default                     : No
    Forced                      : No
    
    Text #2
    ID                          : 4
    Format                      : UTF-8
    Codec ID                    : S_TEXT/UTF8
    Codec ID/Info               : UTF-8 Plain Text
    Duration                    : 1 h 27 min
    Bit rate                    : 231 b/s
    Count of elements           : 1708
    Stream size                 : 148 KiB (0%)
    Title                       : Sub Thai SRT
    Language                    : Thai
    Default                     : No
    Forced                      : No
    
    Text #3
    ID                          : 5
    Format                      : PGS
    Muxing mode                 : zlib
    Codec ID                    : S_HDMV/PGS
    Codec ID/Info               : Picture based subtitle format used on BDs/HD-DVDs
    Duration                    : 1 h 27 min
    Bit rate                    : 61.5 kb/s
    Count of elements           : 3416
    Stream size                 : 38.4 MiB (1%)
    Title                       : Sub Thai PGS
    Language                    : Thai
    Default                     : Yes
    Forced                      : No
    
    Text #4
    ID                          : 6
    Format                      : VobSub
    Muxing mode                 : zlib
    Codec ID                    : S_VOBSUB
    Codec ID/Info               : Picture based subtitle format used on DVDs
    Duration                    : 1 h 27 min
    Bit rate                    : 22.2 kb/s
    Count of elements           : 1889
    Stream size                 : 13.8 MiB (0%)
    Title                       : Sub English 1080p
    Language                    : English
    Default                     : No
    Forced                      : No
    
    Text #5
    ID                          : 7
    Format                      : UTF-8
    Codec ID                    : S_TEXT/UTF8
    Codec ID/Info               : UTF-8 Plain Text
    Duration                    : 1 h 27 min
    Bit rate                    : 114 b/s
    Count of elements           : 1889
    Stream size                 : 73.2 KiB (0%)
    Title                       : Sub English SRT
    Language                    : English
    Default                     : No
    Forced                      : No
    
    Text #6
    ID                          : 8
    Format                      : PGS
    Muxing mode                 : zlib
    Codec ID                    : S_HDMV/PGS
    Codec ID/Info               : Picture based subtitle format used on BDs/HD-DVDs
    Duration                    : 1 h 27 min
    Bit rate                    : 70.6 kb/s
    Count of elements           : 3778
    Stream size                 : 43.9 MiB (2%)
    Title                       : Sub English PGS
    Language                    : English
    Default                     : No
    Forced                      : No




    2.5 GB
    http://cornfile.com/ahtjqt16ldlg
    http://www.mekafile.com/dl.php?f=3nde3dc7k7s4

    2.8 GB
    http://cornfile.com/y5qb3w3mi0yu
    http://www.mekafile.com/dl.php?f=PVf5d5c7k7li

  2. The Following User Says Thank You to Duckload.us For This Useful Post:

    noi54 (04-04-2020)

  3. #2
    Senior Member
    สมัครเมื่อ
    Jun 2014
    โพสต์
    3,903
    Thanks
    0
    Thanked 0 Times in 0 Posts
    ขอบคุณครับ

  4. #3
    Senior Member
    สมัครเมื่อ
    Jul 2013
    โพสต์
    584
    Thanks
    0
    Thanked 0 Times in 0 Posts
    ขอบคุณครับ

+ ตอบกลับกระทู้

ข้อมูลกระทู้

Users Browsing this Thread

ในขณะนี้มี 1 ท่านดูกระทู้อยู่. (0 สมาชิกและ 1 ผู้เยี่ยมชม)

     

กฎการโพสต์ข้อความ

  • ท่าน ไม่สามารถ ตั้งกระทู้ใหม่ได้
  • ท่าน ไม่สามารถ ตอบกระทู้ได้
  • ท่าน ไม่สามารถ แนบไฟล์ได้
  • ท่าน ไม่สามารถ แก้ไขข้อความโพสต์ได้
  • BB code สถานะ เปิด
  • Smilies สถานะ เปิด
  • [IMG] สถานะ เปิด
  • HTML สถานะ ปิด