+ ตอบกลับกระทู้
สรุปผลการค้นหา 1 ถึง 4 จากทั้งหมด 4
  1. #1
    Administrators รูปส่วนตัว Duckload.us
    สมัครเมื่อ
    Dec 2010
    โพสต์
    114,385
    Thanks
    7
    Thanked 120,589 Times in 54,259 Posts

    Question [ฝรั่ง]-The Invisible Man (2020) มนุษย์ล่องหน - [Soundtrack บรรยายไทย+อังกฤษ] 1080p.AC3.x264




    เซซิเลีย แคสส์ (เอลิซาเบธ มอสส์) คือหญิงสาวที่มีความสัมพันธ์กับนักวิทยาศาสตร์ที่ทั้ งร่ำรวยและฉลาดล้ำเลิศ แต่ความสัมพันธ์นี้มีทั้งความรุนแรงและเธอเป็นฝ่ายที ่ถูกควบคุม ในคืนอันเงียบสงัด เธอจึงหนีออกมาและหลบซ่อนตัวตัวได้รับความช่วยเหลือจ ากน้องสาว (แฮร์เรียต ไดเออร์ จาก In Between) เพื่อนสมัยเด็ก (อัลดิส ฮอดจ์ จาก Straight Outta Compton) ลูกสาววัยรุ่นของเขา (สตอร์ม รีด จาก Euphoria)

    เมื่อแฟนเก่าสุดเลวทรามของเซซิเลีย (โอลิเวอร์ แจ็คสัน-โคเฮน จาก The Haunting of Hill House) ตัดสินใจฆ่าตัวตาย และทิ้งทรัพย์สมบัติจำนวนมากให้เธอ เซซิเลีย สงสัยว่าการตายของเขาเป็นเรื่องหลอกลวง ในขณะที่เหตุการณ์อันน่าขนลุกกลายเป็นเรื่องคอขาดบาด ตาย เกิดการขู่เอาชีวิตของบุคคลที่เธอรัก สติของเซซิเลียเริ่มปลดปล่อย เธอพยายามพิสูจน์ว่าเธอถูกไล่ล่าจากใครบางคนที่ไม่มี ใครเห็น


    Duration : 2 h 4 min
    Overall bit rate : 8 358 kb/s
    Encoded date : UTC 2020-05-20 13:30:47
    Writing application : mkvmerge v46.0.0 ('No Deeper Escape') 64-bit
    Writing library : libebml v1.3.10 + libmatroska v1.5.2
    Cover : Yes
    Attachments : cover

    Video
    ID : 1
    Format : AVC
    Format/Info : Advanced Video Codec
    Format profile : [email protected]
    Format settings : CABAC / 5 Ref Frames
    Format settings, CABAC : Yes
    Format settings, Reference : 5 frames
    Codec ID : V_MPEG4/ISO/AVC
    Duration : 2 h 4 min
    Bit rate : 7 650 kb/s
    Width : 1 920 pixels
    Height : 804 pixels
    Display aspect ratio : 2.40:1
    Frame rate mode : Constant
    Frame rate : 23.976 (24000/1001) FPS
    Color space : YUV
    Chroma subsampling : 4:2:0
    Bit depth : 8 bits
    Scan type : Progressive
    Bits/(Pixel*Frame) : 0.207
    Stream size : 6.64 GiB (91%)
    Writing library : x264 core 157 r2958 57baac4
    Encoding settings : cabac=1 / ref=5 / deblock=1:-3:-3 / analyse=0x3:0x113 / me=umh / subme=11 / psy=1 / psy_rd=1.05:0.05 / mixed_ref=1 / me_range=48 / chroma_me=1 / trellis=2 / 8x8dct=1 / cqm=0 / deadzone=21,11 / fast_pskip=0 / chroma_qp_offset=-3 / threads=20 / lookahead_threads=5 / sliced_threads=0 / nr=0 / decimate=0 / interlaced=0 / bluray_compat=0 / constrained_intra=0 / bframes=10 / b_pyramid=2 / b_adapt=2 / b_bias=0 / direct=3 / weightb=1 / open_gop=0 / weightp=2 / keyint=240 / keyint_min=23 / scenecut=40 / intra_refresh=0 / rc_lookahead=100 / rc=2pass / mbtree=0 / bitrate=7650 / ratetol=1.0 / qcomp=0.70 / qpmin=0 / qpmax=69 / qpstep=4 / cplxblur=20.0 / qblur=0.5 / vbv_maxrate=50000 / vbv_bufsize=62500 / nal_hrd=none / filler=0 / ip_ratio=1.40 / pb_ratio=1.30 / aq=1:0.70
    Language : English
    Default : Yes
    Forced : No

    Audio
    ID : 2
    Format : AC-3
    Format/Info : Audio Coding 3
    Commercial name : Dolby Digital
    Codec ID : A_AC3
    Duration : 2 h 4 min
    Bit rate mode : Constant
    Bit rate : 640 kb/s
    Channel(s) : 6 channels
    Channel layout : L R C LFE Ls Rs
    Sampling rate : 48.0 kHz
    Frame rate : 31.250 FPS (1536 SPF)
    Compression mode : Lossy
    Stream size : 569 MiB (8%)
    Language : English
    Service kind : Complete Main
    Default : No
    Forced : No

    Text #1
    ID : 3
    Format : PGS
    Muxing mode : zlib
    Codec ID : S_HDMV/PGS
    Codec ID/Info : Picture based subtitle format used on BDs/HD-DVDs
    Duration : 2 h 4 min
    Bit rate : 31.8 kb/s
    Count of elements : 2832
    Stream size : 28.2 MiB (0%)
    Title : Gray
    Language : English
    Default : No
    Forced : No

    Text #2
    ID : 4
    Format : PGS
    Muxing mode : zlib
    Codec ID : S_HDMV/PGS
    Codec ID/Info : Picture based subtitle format used on BDs/HD-DVDs
    Duration : 2 h 4 min
    Bit rate : 31.8 kb/s
    Count of elements : 2832
    Stream size : 28.2 MiB (0%)
    Title : White
    Language : English
    Default : No
    Forced : No

    Text #3
    ID : 5
    Format : PGS
    Muxing mode : zlib
    Codec ID : S_HDMV/PGS
    Codec ID/Info : Picture based subtitle format used on BDs/HD-DVDs
    Duration : 2 h 4 min
    Bit rate : 31.8 kb/s
    Count of elements : 2832
    Stream size : 28.2 MiB (0%)
    Title : Yellow
    Language : English
    Default : No
    Forced : No

    Text #4
    ID : 6
    Format : PGS
    Muxing mode : zlib
    Codec ID : S_HDMV/PGS
    Codec ID/Info : Picture based subtitle format used on BDs/HD-DVDs
    Duration : 2 h 3 min
    Bit rate : 18.7 kb/s
    Count of elements : 1704
    Stream size : 16.5 MiB (0%)
    Title : Gray
    Language : Thai
    Default : No
    Forced : No

    Text #5
    ID : 7
    Format : PGS
    Muxing mode : zlib
    Codec ID : S_HDMV/PGS
    Codec ID/Info : Picture based subtitle format used on BDs/HD-DVDs
    Duration : 2 h 3 min
    Bit rate : 18.7 kb/s
    Count of elements : 1704
    Stream size : 16.5 MiB (0%)
    Title : White
    Language : Thai
    Default : Yes
    Forced : No

    Text #6
    ID : 8
    Format : PGS
    Muxing mode : zlib
    Codec ID : S_HDMV/PGS
    Codec ID/Info : Picture based subtitle format used on BDs/HD-DVDs
    Duration : 2 h 3 min
    Bit rate : 18.7 kb/s
    Count of elements : 1704
    Stream size : 16.5 MiB (0%)
    Title : Yellow
    Language : Thai
    Default : No
    Forced : No







    Download: cornfile
    http://cornfile.com/gew1iq3mz9dx
    Download: mekafile
    http://www.mekafile.com/dl.php?f=HR4f92c9hZgo

  2. The Following 3 Users Say Thank You to Duckload.us For This Useful Post:

    markzooms (วันนี้), noi54 (05-23-2020), Tatum03 (05-22-2020)

  3. #2
    Senior Member
    สมัครเมื่อ
    Oct 2013
    ที่อยู่
    Thailand
    โพสต์
    1,334
    Thanks
    1,205
    Thanked 0 Times in 0 Posts
    ขอบคุณมาก

  4. #3
    Senior Member
    สมัครเมื่อ
    Jul 2013
    โพสต์
    550
    Thanks
    0
    Thanked 0 Times in 0 Posts
    ขอบคุณครับ

  5. #4
    Senior Member
    สมัครเมื่อ
    Jun 2014
    โพสต์
    3,791
    Thanks
    0
    Thanked 0 Times in 0 Posts
    ขอบคุณครับ

+ ตอบกลับกระทู้

ข้อมูลกระทู้

Users Browsing this Thread

ในขณะนี้มี 1 ท่านดูกระทู้อยู่. (0 สมาชิกและ 1 ผู้เยี่ยมชม)

     

กฎการโพสต์ข้อความ

  • ท่าน ไม่สามารถ ตั้งกระทู้ใหม่ได้
  • ท่าน ไม่สามารถ ตอบกระทู้ได้
  • ท่าน ไม่สามารถ แนบไฟล์ได้
  • ท่าน ไม่สามารถ แก้ไขข้อความโพสต์ได้
  • BB code สถานะ เปิด
  • Smilies สถานะ เปิด
  • [IMG] สถานะ เปิด
  • HTML สถานะ ปิด