+ ตอบกลับกระทู้
สรุปผลการค้นหา 1 ถึง 2 จากทั้งหมด 2
  1. #1
    Administrators รูปส่วนตัว Duckload.us
    สมัครเมื่อ
    Dec 2010
    โพสต์
    116,994
    Thanks
    7
    Thanked 123,289 Times in 55,254 Posts

    Cool [ฝรั่ง]-[* Amazon Prime *] Hanna Season 1-2 (2019-2020) : ฮันนา ซีซั่น 1-2 [เสียงอังกฤษ 5.1] [บรรยายไทย + อังกฤษ] [ซับไทย Master From Amazon Prime + ซับ SRT , PGS]-WEB-DL.H.264.1080p.




    Hanna เป็นซีรี่ย์โทรทัศน์แอ็กชั่นอเมริกันที่สร้างจากภาพย นตร์ชื่อเดียวกันในปี 2011 บน Prime Video ซีรีส์นี้ถูกสร้างและเขียนโดย David Farr กำกับโดย Sarah Adina Smith และนำแสดงโดย Esme Creed-Miles, Joel Kinnaman และ Mireille Enos ตอนแรกวางจำหน่ายใน Amazon Video ในรูปแบบ จำกัด เวลาในวันที่ 3 กุมภาพันธ์ 2019 ฤดูกาลเต็มแปดตอนแรกเปิดตัวเมื่อวันที่ 29 มีนาคม 2019 ในเดือนเมษายน 2019 Amazon ได้ต่ออายุซีรีส์สำหรับฤดูกาลที่สองซึ่งจะ รอบปฐมทัศน์ในวันที่ 3 กรกฎาคม 2020

    ฮันนาเป็นเด็กหญิงอายุ 15 ปีอาศัยอยู่กับเอริคชายคนเดียวที่เธอรู้จักในฐานะพ่อ ของเธอในป่าห่างไกลในโปแลนด์ เอริคเคยทำการคัดเลือกสตรีมีครรภ์เข้าสู่โปรแกรม CIA ชื่อรหัส UTRAX ซึ่ง DNA ของเด็กนั้นได้รับการพัฒนาเพื่อสร้างสุดยอดทหาร เมื่อเอริคตกหลุมรักโยฮันนาแม่ของฮันนาเขาช่วยฮันนาท ารกและพวกเขาก็หนี ซีไอเอสั่งให้ตัวแทนในสถานที่ของพวกเขาคือ Marissa เพื่อปิดโครงการและกำจัดทารกทั้งหมด


    Format : Matroska
    Format version : Version 4
    File size : 1.90 GiB
    Duration : 48 min 13 s
    Overall bit rate : 5 652 kb/s
    Movie name : Hanna.S01E01.1080p.AMZN.WEB-DL.DD.5.1.x264_SkiesIT
    Encoded date : UTC 2020-07-03 09:33:52
    Writing application : mkvmerge v48.0.0 ('Fortress Around Your Heart') 64-bit
    Writing library : libebml v1.4.0 + libmatroska v1.6.0

    Video
    ID : 1
    Format : AVC
    Format/Info : Advanced Video Codec
    Format profile : [email protected]
    Format settings : CABAC / 4 Ref Frames
    Format settings, CABAC : Yes
    Format settings, Reference frames : 4 frames
    Codec ID : V_MPEG4/ISO/AVC
    Duration : 48 min 13 s
    Bit rate : 4 953 kb/s
    Width : 1 920 pixels
    Height : 1 080 pixels
    Display aspect ratio : 16:9
    Frame rate mode : Constant
    Frame rate : 23.976 (24000/1001) FPS
    Color space : YUV
    Chroma subsampling : 4:2:0
    Bit depth : 8 bits
    Scan type : Progressive
    Bits/(Pixel*Frame) : 0.100
    Stream size : 1.67 GiB (88%)
    Title : Hanna.S01E01.1080p.AMZN.WEB-DL.DD.5.1.x264_SkiesIT
    Language : English
    Default : Yes
    Forced : No
    Color range : Limited
    Color primaries : BT.709
    Transfer characteristics : BT.709
    Matrix coefficients : BT.709

    Audio
    ID : 2
    Format : E-AC-3
    Format/Info : Enhanced AC-3
    Commercial name : Dolby Digital Plus
    Codec ID : A_EAC3
    Duration : 48 min 13 s
    Bit rate mode : Constant
    Bit rate : 640 kb/s
    Channel(s) : 6 channels
    Channel layout : L R C LFE Ls Rs
    Sampling rate : 48.0 kHz
    Frame rate : 31.250 FPS (1536 SPF)
    Compression mode : Lossy
    Stream size : 221 MiB (11%)
    Title : English
    Language : English
    Service kind : Complete Main
    Default : Yes
    Forced : No

    Text #1
    ID : 3
    Format : UTF-8
    Codec ID : S_TEXT/UTF8
    Codec ID/Info : UTF-8 Plain Text
    Duration : 45 min 4 s
    Bit rate : 56 b/s
    Count of elements : 319
    Stream size : 18.5 KiB (0%)
    Title : Thai SRT From Amazon Prime
    Language : Thai
    Default : Yes
    Forced : No

    Text #2
    ID : 4
    Format : UTF-8
    Codec ID : S_TEXT/UTF8
    Codec ID/Info : UTF-8 Plain Text
    Duration : 44 min 27 s
    Bit rate : 23 b/s
    Count of elements : 337
    Stream size : 7.51 KiB (0%)
    Title : English SRT
    Language : English
    Default : No
    Forced : No

    Text #3
    ID : 5
    Format : PGS
    Muxing mode : zlib
    Codec ID : S_HDMV/PGS
    Codec ID/Info : Picture based subtitle format used on BDs/HD-DVDs
    Duration : 45 min 4 s
    Bit rate : 18.0 kb/s
    Count of elements : 638
    Stream size : 5.80 MiB (0%)
    Title : Thai PGS [Angsana]
    Language : Thai
    Default : No
    Forced : No

    Text #4
    ID : 6
    Format : PGS
    Muxing mode : zlib
    Codec ID : S_HDMV/PGS
    Codec ID/Info : Picture based subtitle format used on BDs/HD-DVDs
    Duration : 45 min 4 s
    Bit rate : 18.0 kb/s
    Count of elements : 638
    Stream size : 5.80 MiB (0%)
    Title : Thai PGS [Angsana Yellow]
    Language : Thai
    Default : No
    Forced : No

    Text #5
    ID : 7
    Format : PGS
    Muxing mode : zlib
    Codec ID : S_HDMV/PGS
    Codec ID/Info : Picture based subtitle format used on BDs/HD-DVDs
    Duration : 45 min 4 s
    Bit rate : 17.8 kb/s
    Count of elements : 638
    Stream size : 5.72 MiB (0%)
    Title : Thai PGS [Niramit]
    Language : Thai
    Default : No
    Forced : No

    Text #6
    ID : 8
    Format : PGS
    Muxing mode : zlib
    Codec ID : S_HDMV/PGS
    Codec ID/Info : Picture based subtitle format used on BDs/HD-DVDs
    Duration : 45 min 4 s
    Bit rate : 17.8 kb/s
    Count of elements : 638
    Stream size : 5.72 MiB (0%)
    Title : Thai PGS [Niramit Yellow]
    Language : Thai
    Default : No
    Forced : No

    Text #7
    ID : 9
    Format : PGS
    Muxing mode : zlib
    Codec ID : S_HDMV/PGS
    Codec ID/Info : Picture based subtitle format used on BDs/HD-DVDs
    Duration : 45 min 4 s
    Bit rate : 17.8 kb/s
    Count of elements : 638
    Stream size : 5.75 MiB (0%)
    Title : Thai PGS [Saranun]
    Language : Thai
    Default : No
    Forced : No

    Text #8
    ID : 10
    Format : PGS
    Muxing mode : zlib
    Codec ID : S_HDMV/PGS
    Codec ID/Info : Picture based subtitle format used on BDs/HD-DVDs
    Duration : 45 min 4 s
    Bit rate : 17.8 kb/s
    Count of elements : 638
    Stream size : 5.75 MiB (0%)
    Title : Thai PGS [Saranun Yellow]
    Language : Thai
    Default : No
    Forced : No

    Text #9
    ID : 11
    Format : PGS
    Muxing mode : zlib
    Codec ID : S_HDMV/PGS
    Codec ID/Info : Picture based subtitle format used on BDs/HD-DVDs
    Duration : 44 min 27 s
    Bit rate : 14.7 kb/s
    Count of elements : 674
    Stream size : 4.67 MiB (0%)
    Title : English PGS
    Language : English
    Default : No
    Forced : No

    Menu
    00:00:00.000 : en:Amazon Original
    00:00:05.000 : en:A mission to retrieve precious cargo
    00:04:47.000 : en:The hunter and the hunted
    00:10:42.000 : en:Title Sequence
    00:10:49.000 : en:Life lessons never stop
    00:16:06.000 : en:Always questions but never answers
    00:19:59.000 : en:Hanna's curiosity gets the best of her
    00:26:21.000 : en:The line between secrets and lies
    00:28:30.000 : en:Not all people are dangerous
    00:32:35.000 : en:Arvo shows Hanna something amazing
    00:35:16.000 : en:Hanna learns what she's been training for
    00:38:27.000 : en:Government agencies investigate a red flag
    00:40:25.000 : en:The plan is put into motion
    00:46:28.000 : en:End Credits










    Download: filecondo
    27.61 GB
    http://www.filecondo.com/dl.php?f=304d681JS9J4
    **************************
    Hanna.S02
    1 http://www.filecondo.com/dl.php?f=0d1f841JS5Rn
    2 http://www.filecondo.com/dl.php?f=S8f2d91JS5Sk
    3 http://www.filecondo.com/dl.php?f=L3ee7f1JS5Tl
    4 http://www.filecondo.com/dl.php?f=E8c1811JS5Ui
    5 http://www.filecondo.com/dl.php?f=R7c82f1JS5Vh
    6 http://www.filecondo.com/dl.php?f=8039b21JS5Wc
    7 http://www.filecondo.com/dl.php?f=q150f51JS5Xb
    8 http://www.filecondo.com/dl.php?f=J10c501JS5Y8

    Hanna.S01
    1 http://www.filecondo.com/dl.php?f=I836131JS5JF
    2 http://www.filecondo.com/dl.php?f=W4094f1JS5KJ
    3 http://www.filecondo.com/dl.php?f=Ad95cc1JS5LB
    4 http://www.filecondo.com/dl.php?f=M8a4a71JS5Mv
    5 http://www.filecondo.com/dl.php?f=46a0f21JS5Nu
    6 http://www.filecondo.com/dl.php?f=m9dc521JS5Ot
    7 http://www.filecondo.com/dl.php?f=h2a7111JS5Pn
    8 http://www.filecondo.com/dl.php?f=5776fb1JS5Qo

    Download: cornfile
    Hanna.S01E01.1080p.AMZN.WEB-DL.DD.5.1.x264_SkiesIT.mkv - 1.9 GB
    Hanna.S01E02.1080p.AMZN.WEB-DL.DD.5.1.x264_SkiesIT.mkv - 2.5 GB
    Hanna.S01E03.1080p.AMZN.WEB-DL.DD.5.1.x264_SkiesIT.mkv - 1.6 GB
    Hanna.S01E04.1080p.AMZN.WEB-DL.DD.5.1.x264_SkiesIT.mkv - 1.5 GB
    Hanna.S01E05.1080p.AMZN.WEB-DL.DD.5.1.x264_SkiesIT.mkv - 1.4 GB
    Hanna.S01E06.1080p.AMZN.WEB-DL.DD.5.1.x264_SkiesIT.mkv - 1.6 GB
    Hanna.S01E07.1080p.AMZN.WEB-DL.DD.5.1.x264_SkiesIT.mkv - 1.3 GB
    Hanna.S01E08.1080p.AMZN.WEB-DL.DD.5.1.x264_SkiesIT.mkv - 1.8 GB
    Hanna.S02E01.1080p.AMZN.WEB-DL.DD.5.1.x264_SkiesIT.mkv - 1.8 GB
    Hanna.S02E02.1080p.AMZN.WEB-DL.DD.5.1.x264_SkiesIT.mkv - 1.7 GB
    Hanna.S02E03.1080p.AMZN.WEB-DL.DD.5.1.x264_SkiesIT.mkv - 1.8 GB
    Hanna.S02E04.1080p.AMZN.WEB-DL.DD.5.1.x264_SkiesIT.mkv - 1.8 GB
    Hanna.S02E05.1080p.AMZN.WEB-DL.DD.5.1.x264_SkiesIT.mkv - 1.9 GB
    Hanna.S02E06.1080p.AMZN.WEB-DL.DD.5.1.x264_SkiesIT.mkv - 1.7 GB
    Hanna.S02E07.1080p.AMZN.WEB-DL.DD.5.1.x264_SkiesIT.mkv - 1.7 GB
    Hanna.S02E08.1080p.AMZN.WEB-DL.DD.5.1.x264_SkiesIT.mkv - 1.7 GB

    Download: mekafile
    Hanna.S02
    1 http://www.mekafile.com/dl.php?f=ZZddc1cb8EUY
    2 http://www.mekafile.com/dl.php?f=mW0162cb8Fmb
    3 http://www.mekafile.com/dl.php?f=lF3502cb8F8D
    4 http://www.mekafile.com/dl.php?f=tH3183cb8Ffp
    5 http://www.mekafile.com/dl.php?f=H1bc7acb8Ft4
    6 http://www.mekafile.com/dl.php?f=JP4261cb8F1K
    7 http://www.mekafile.com/dl.php?f=vh9505cb8EOc
    8 http://www.mekafile.com/dl.php?f=07c236cb8EHq

    Hanna.S01
    1 http://www.mekafile.com/dl.php?f=1n9a05cb8BcS
    2 http://www.mekafile.com/dl.php?f=Ld51aacb8BqE
    3 http://www.mekafile.com/dl.php?f=zheffdcb8AZ6
    4 http://www.mekafile.com/dl.php?f=xX32fccb8Bjx
    5 http://www.mekafile.com/dl.php?f=rDc731cb8BwY
    6 http://www.mekafile.com/dl.php?f=e7479dcb8ASk
    7 http://www.mekafile.com/dl.php?f=EN2c5fcb8BDD
    8 http://www.mekafile.com/dl.php?f=396d32cb8B5Z

  2. The Following 2 Users Say Thank You to Duckload.us For This Useful Post:

    jangska (08-01-2020), neorun (07-08-2020)

  3. #2
    Senior Member
    สมัครเมื่อ
    Jul 2012
    โพสต์
    6,977
    Thanks
    0
    Thanked 0 Times in 0 Posts
    ขอบคุณสำหรับโหลดไฟล์เดี่ยวจ้า ขอให้ทำตลอดไปหรือทำซีซั่นละไฟล์ก็ได้จ้า

+ ตอบกลับกระทู้

ข้อมูลกระทู้

Users Browsing this Thread

ในขณะนี้มี 1 ท่านดูกระทู้อยู่. (0 สมาชิกและ 1 ผู้เยี่ยมชม)

     

กฎการโพสต์ข้อความ

  • ท่าน ไม่สามารถ ตั้งกระทู้ใหม่ได้
  • ท่าน ไม่สามารถ ตอบกระทู้ได้
  • ท่าน ไม่สามารถ แนบไฟล์ได้
  • ท่าน ไม่สามารถ แก้ไขข้อความโพสต์ได้
  • BB code สถานะ เปิด
  • Smilies สถานะ เปิด
  • [IMG] สถานะ เปิด
  • HTML สถานะ ปิด