+ ตอบกลับกระทู้
สรุปผลการค้นหา 1 ถึง 2 จากทั้งหมด 2
  1. #1
    Administrators รูปส่วนตัว Duckload.us
    สมัครเมื่อ
    Dec 2010
    โพสต์
    116,542
    Thanks
    7
    Thanked 123,018 Times in 55,141 Posts

    Cool [ฝรั่ง]-[* Amazon Prime *] The Tick Season 1-2 : ยอดมนุษย์เห็บ ซี่ซั่น 1-2 [เสียงอังกฤษ 5.1] [บรรยายไทย + อังกฤษ] [ซับไทย Master From Amazon Prime + ซับ SRT , PGS]-WEB-DL.H.264.1080p. [Hi-def rip from Master]-[Soundtrack บรรยายไทย]





    ซีรีส์แนว Super Hero ตลกล้อเลียน Super Hero ด้วยกันเองอย่างจริงจัง ที่รับรองว่าใครเป็นแฟนหนังแนวนี้มาต้องฮาสุดๆ กับมุกจิกกัดทุกอย่างที่เรื่องประเคนใส่มา โลกในเรื่องยังไม่เหมือนใคร และไม่เหมือนเรื่องไหนมาก่อน มีแค่คล้ายๆ กันก็ The Boy (อาจจะมี Watchmen ปนมานิดๆ) ซึ่งก็ไม่ใช่แค่ตลกอย่างเดียว เรื่องก็ยังมีความโหดเลือดสาด 18+ ไม่เซ็นเซอร์เลย นอกจากนี้เรื่องยังเต็มไปด้วยมิตรภาพในแง่บวก ดูแล้วอารมณ์ดี แต่ก็มีความสนุกด้วยตัวเรื่องเว่อร์ๆ แบบ Super Hero อยู่ครบถ้วนด้วยครับ

    The Tick เป็นเรื่องราวของโลกที่มี Super Hero คนแรกตกลงมายังโลกเมื่อกว่า 100 ปีก่อน ในชื่อ Superian (ซูพีเรียน) และการมาของเขาทำให้เกิดเอฟเฟ็กต์การกลายพันธ์ในโลกต ่อมา จนกลายเป็นโลกที่มีคนมีพลังพิเศษมากมายจนเป็นเรื่องป กติ มีกฏหมายไว้บังคับใช้กับ Super Hero โดยเฉพาะ อย่างการนำมาขึ้นทะเบียนให้สิทธิต่างๆ เหนือคนปกติ



    File size : 1.37 GiB
    Duration : 26 min 9 s
    Overall bit rate : 7 486 kb/s
    Movie name : The.Tick.2016.S02E01.Lesson.One.Think.Quick.1080p. AMZN.WEB-DL.DDP5.1.x264_SkiesIT
    Encoded date : UTC 2020-07-07 10:04:02
    Writing application : mkvmerge v48.0.0 ('Fortress Around Your Heart') 64-bit
    Writing library : libebml v1.4.0 + libmatroska v1.6.0

    Video
    ID : 1
    Format : AVC
    Format/Info : Advanced Video Codec
    Format profile : [email protected]
    Format settings : CABAC / 4 Ref Frames
    Format settings, CABAC : Yes
    Format settings, Reference frames : 4 frames
    Codec ID : V_MPEG4/ISO/AVC
    Duration : 26 min 9 s
    Bit rate mode : Constant
    Bit rate : 6 649 kb/s
    Nominal bit rate : 10 000 kb/s
    Width : 1 920 pixels
    Height : 1 080 pixels
    Display aspect ratio : 16:9
    Frame rate mode : Constant
    Frame rate : 23.976 (24000/1001) FPS
    Color space : YUV
    Chroma subsampling : 4:2:0
    Bit depth : 8 bits
    Scan type : Progressive
    Bits/(Pixel*Frame) : 0.134
    Stream size : 1.22 GiB (89%)
    Title : The.Tick.2016.S02E01.Lesson.One.Think.Quick.1080p. AMZN.WEB-DL.DDP5.1.x264_SkiesIT
    Language : English
    Default : Yes
    Forced : No
    Color range : Limited
    Color primaries : BT.709
    Transfer characteristics : BT.709
    Matrix coefficients : BT.709

    Audio
    ID : 2
    Format : E-AC-3
    Format/Info : Enhanced AC-3
    Commercial name : Dolby Digital Plus
    Codec ID : A_EAC3
    Duration : 26 min 9 s
    Bit rate mode : Constant
    Bit rate : 640 kb/s
    Channel(s) : 6 channels
    Channel layout : L R C LFE Ls Rs
    Sampling rate : 48.0 kHz
    Frame rate : 31.250 FPS (1536 SPF)
    Compression mode : Lossy
    Stream size : 120 MiB (9%)
    Language : English
    Service kind : Complete Main
    Default : Yes
    Forced : No

    Text #1
    ID : 3
    Format : UTF-8
    Codec ID : S_TEXT/UTF8
    Codec ID/Info : UTF-8 Plain Text
    Duration : 24 min 29 s
    Bit rate : 199 b/s
    Count of elements : 429
    Stream size : 35.9 KiB (0%)
    Title : Thai SRT From Amazon Prime
    Language : Thai
    Default : Yes
    Forced : No

    Text #2
    ID : 4
    Format : UTF-8
    Codec ID : S_TEXT/UTF8
    Codec ID/Info : UTF-8 Plain Text
    Duration : 24 min 30 s
    Bit rate : 86 b/s
    Count of elements : 505
    Stream size : 15.5 KiB (0%)
    Title : English SDH
    Language : English
    Default : No
    Forced : No

    Text #3
    ID : 5
    Format : PGS
    Muxing mode : zlib
    Codec ID : S_HDMV/PGS
    Codec ID/Info : Picture based subtitle format used on BDs/HD-DVDs
    Duration : 24 min 29 s
    Bit rate : 62.3 kb/s
    Count of elements : 858
    Stream size : 10.9 MiB (1%)
    Title : Thai PGS [Angsana]
    Language : Thai
    Default : No
    Forced : No

    Text #4
    ID : 6
    Format : PGS
    Muxing mode : zlib
    Codec ID : S_HDMV/PGS
    Codec ID/Info : Picture based subtitle format used on BDs/HD-DVDs
    Duration : 24 min 29 s
    Bit rate : 62.3 kb/s
    Count of elements : 858
    Stream size : 10.9 MiB (1%)
    Title : Thai PGS [Angsana Yellow]
    Language : Thai
    Default : No
    Forced : No

    Text #5
    ID : 7
    Format : PGS
    Muxing mode : zlib
    Codec ID : S_HDMV/PGS
    Codec ID/Info : Picture based subtitle format used on BDs/HD-DVDs
    Duration : 24 min 29 s
    Bit rate : 61.3 kb/s
    Count of elements : 858
    Stream size : 10.7 MiB (1%)
    Title : Thai PGS [Niramit]
    Language : Thai
    Default : No
    Forced : No

    Text #6
    ID : 8
    Format : PGS
    Muxing mode : zlib
    Codec ID : S_HDMV/PGS
    Codec ID/Info : Picture based subtitle format used on BDs/HD-DVDs
    Duration : 24 min 29 s
    Bit rate : 61.3 kb/s
    Count of elements : 858
    Stream size : 10.7 MiB (1%)
    Title : Thai PGS [Niramit Yellow]
    Language : Thai
    Default : No
    Forced : No

    Text #7
    ID : 9
    Format : PGS
    Muxing mode : zlib
    Codec ID : S_HDMV/PGS
    Codec ID/Info : Picture based subtitle format used on BDs/HD-DVDs
    Duration : 24 min 29 s
    Bit rate : 61.7 kb/s
    Count of elements : 858
    Stream size : 10.8 MiB (1%)
    Title : Thai PGS [Sarabun]
    Language : Thai
    Default : No
    Forced : No

    Text #8
    ID : 10
    Format : PGS
    Muxing mode : zlib
    Codec ID : S_HDMV/PGS
    Codec ID/Info : Picture based subtitle format used on BDs/HD-DVDs
    Duration : 24 min 29 s
    Bit rate : 61.7 kb/s
    Count of elements : 858
    Stream size : 10.8 MiB (1%)
    Title : Thai PGS [Sarabun Yellow]
    Language : Thai
    Default : No
    Forced : No

    Text #9
    ID : 11
    Format : PGS
    Muxing mode : zlib
    Codec ID : S_HDMV/PGS
    Codec ID/Info : Picture based subtitle format used on BDs/HD-DVDs
    Duration : 24 min 30 s
    Bit rate : 56.1 kb/s
    Count of elements : 1010
    Stream size : 9.83 MiB (1%)
    Title : English PGS
    Language : English
    Default : No
    Forced : No

    Menu
    00:00:00.000 : en:Amazon Original
    00:00:05.000 : en:Following the hero's way
    00:02:13.000 : en:Opening Credits
    00:02:42.000 : en:Ms. Lint returns
    00:03:23.000 : enot is at home
    00:03:36.000 : en:Kevin feels something
    00:04:02.000 : en:Arthur's busy morning
    00:08:50.000 : en:Kevin is paranoid
    00:09:25.000 : en:Something strange is going on with Dot
    00:10:34.000 : en:Arthur has to make a choice
    00:13:22.000 : enot's day keeps getting weirder
    00:16:58.000 : en:Tick and Arthur go to the bank
    00:20:14.000 : enot and Overkill want to feel useful
    00:21:56.000 : en:Tick and Arthur meet Ty Rathbone
    00:24:40.000 : en:End Credits













    Download: filecondo
    The.Tick.2016.S01.1080p.AMZN.WEB-DL.DDP5.1.x264_SkiesIT.folder.tar
    http://www.filecondo.com/dl.php?f=Zec62d1JTbxn
    The.Tick.2016.S02.1080p.AMZN.WEB-DL.DDP5.1.x264_SkiesIT.rar
    http://www.filecondo.com/dl.php?f=lae8e21JTuNK

    ******************************************
    The.Tick.2016.S02
    1 http://www.filecondo.com/dl.php?f=e2cc421JTsMN
    2 http://www.filecondo.com/dl.php?f=Y5039d1JTsNM
    3 http://www.filecondo.com/dl.php?f=S09cad1JTsOJ
    4 http://www.filecondo.com/dl.php?f=Pb5ee81JTsPN
    5 http://www.filecondo.com/dl.php?f=ncccc61JTsQF
    6 http://www.filecondo.com/dl.php?f=j7d4911JTsRE
    7 http://www.filecondo.com/dl.php?f=Qc90921JTsSA
    8 http://www.filecondo.com/dl.php?f=3a71791JTsTy
    9 http://www.filecondo.com/dl.php?f=B2e3331JTsUw
    10 http://www.filecondo.com/dl.php?f=qb2c601JTsVu

    The.Tick.2016.S01
    1 http://www.filecondo.com/dl.php?f=ce8aad1JTsBc
    2 http://www.filecondo.com/dl.php?f=m735231JTsC8
    3 http://www.filecondo.com/dl.php?f=93b1881JTsD5
    4 http://www.filecondo.com/dl.php?f=h6a8721JTsE5
    5 http://www.filecondo.com/dl.php?f=r9e0791JTsF2
    6 http://www.filecondo.com/dl.php?f=v58c471JTsG0
    7 http://www.filecondo.com/dl.php?f=Ff9cd11JTsGX
    8 http://www.filecondo.com/dl.php?f=s57a951JTsHW
    9 http://www.filecondo.com/dl.php?f=q51bf01JTsIU
    10 http://www.filecondo.com/dl.php?f=C355de1JTsJQ
    11 http://www.filecondo.com/dl.php?f=H8faf91JTsKO
    12 http://www.filecondo.com/dl.php?f=b746ba1JTsLP

    Download: cornfile
    The.Tick.2016.S01E01.The.Tick.1080p.AMZN.WEB-DL.DDP5.1.x264_SkiesIT.mkv - 1.4 GB
    The.Tick.2016.S01E02.Wheres.My.Mind.1080p.AMZN.WEB-DL.DDP5.1.x264_SkiesIT.mkv - 1.2 GB
    The.Tick.2016.S01E03.Secret.Identity.1080p.AMZN.WE B-DL.DDP5.1.x264_SkiesIT.mkv - 1.1 GB
    The.Tick.2016.S01E04.Party.Crashers.1080p.AMZN.WEB-DL.DDP5.1.x264_SkiesIT.mkv - 1.1 GB
    The.Tick.2016.S01E05.Fear.of.Flying.1080p.AMZN.WEB-DL.DDP5.1.x264_SkiesIT.mkv - 1.0 GB
    The.Tick.2016.S01E06.Rising.1080p.AMZN.WEB-DL.DDP5.1.x264_SkiesIT.mkv - 1.0 GB
    The.Tick.2016.S01E07.Tale.from.the.Crypt.1080p.AMZ N.WEB-DL.DDP5.1.x264_SkiesIT.mkv - 956.8 MB
    The.Tick.2016.S01E08.After.Midnight.1080p.AMZN.WEB-DL.DDP5.1.x264_SkiesIT.mkv - 1.2 GB
    The.Tick.2016.S01E09.My.Dinner.with.Android.1080p. AMZN.WEB-DL.DDP5.1.x264_SkiesIT.mkv - 1.1 GB
    The.Tick.2016.S01E10.Risky.Bismuth.1080p.AMZN.WEB-DL.DDP5.1.x264_SkiesIT.mkv - 963.2 MB
    The.Tick.2016.S01E11.The.Beginning.of.the.End.1080 p.AMZN.WEB-DL.DDP5.1.x264_SkiesIT.mkv - 918.2 MB
    The.Tick.2016.S01E12.The.End.of.the.Beginning.Or.t he.Start.of.the.Dawn.of.the.Age.of.Superhero.1080p .AMZN.WEB-DL.DDP5.1.x264_SkiesIT.mkv - 1.3 GB
    The.Tick.2016.S02E01.Lesson.One.Think.Quick.1080p. AMZN.WEB-DL.DDP5.1.x264_SkiesIT.mkv - 1.4 GB
    The.Tick.2016.S02E02.A.E.G.I.S.and.You.1080p.AMZN. WEB-DL.DDP5.1.x264_SkiesIT.mkv - 1.3 GB
    The.Tick.2016.S02E03.Hot.Beige.1080p.AMZN.WEB-DL.DDP5.1.x264_SkiesIT.mkv - 1.3 GB
    The.Tick.2016.S02E04.Blood.and.Cake.1080p.AMZN.WEB-DL.DDP5.1.x264_SkiesIT.mkv - 1.1 GB
    The.Tick.2016.S02E05.Magic.is.Real.1080p.AMZN.WEB-DL.DDP5.1.x264_SkiesIT.mkv - 1.0 GB
    The.Tick.2016.S02E06.Categorically.Speaking.1080p. AMZN.WEB-DL.DDP5.1.x264_SkiesIT.mkv - 1.4 GB
    The.Tick.2016.S02E07.Lei-Lo.Ho.1080p.AMZN.WEB-DL.DDP5.1.x264_SkiesIT.mkv - 1.1 GB
    The.Tick.2016.S02E08.Joan.1080p.AMZN.WEB-DL.DDP5.1.x264_SkiesIT.mkv - 1.2 GB
    The.Tick.2016.S02E09.In.the.Woods.1080p.AMZN.WEB-DL.DDP5.1.x264_SkiesIT.mkv - 1.1 GB
    The.Tick.2016.S02E10.Choose.Love.1080p.AMZN.WEB-DL.DDP5.1.x264_SkiesIT.mkv - 1.2 GB

    Download: mekafile
    The.Tick.2016.S01E01.The.Tick.1080p.AMZN.WEB-DL.DDP5.1.x264_SkiesIT.mkv
    http://www.mekafile.com/dl.php?f=Wbfc90cblEso

    The.Tick.2016.S01E02.Wheres.My.Mind.1080p.AMZN.WEB-DL.DDP5.1.x264_SkiesIT.mkv
    http://www.mekafile.com/dl.php?f=MQe1e3cblF6A

    The.Tick.2016.S01E03.Secret.Identity.1080p.AMZN.WE B-DL.DDP5.1.x264_SkiesIT.mkv
    http://www.mekafile.com/dl.php?f=8q914ecblFU9

    The.Tick.2016.S01E04.Party.Crashers.1080p.AMZN.WEB-DL.DDP5.1.x264_SkiesIT.mkv
    http://www.mekafile.com/dl.php?f=Yq9355cblGjr

    The.Tick.2016.S01E05.Fear.of.Flying.1080p.AMZN.WEB-DL.DDP5.1.x264_SkiesIT.mkv
    http://www.mekafile.com/dl.php?f=2Rd608cblGuC

    The.Tick.2016.S01E06.Rising.1080p.AMZN.WEB-DL.DDP5.1.x264_SkiesIT.mkv
    http://www.mekafile.com/dl.php?f=3V80e7cblGBX

    The.Tick.2016.S01E07.Tale.from.the.Crypt.1080p.AMZ N.WEB-DL.DDP5.1.x264_SkiesIT.mkv
    http://www.mekafile.com/dl.php?f=NR8119cblGJw

    The.Tick.2016.S01E08.After.Midnight.1080p.AMZN.WEB-DL.DDP5.1.x264_SkiesIT.mkv
    http://www.mekafile.com/dl.php?f=9r98edcblGTs

    The.Tick.2016.S01E09.My.Dinner.with.Android.1080p. AMZN.WEB-DL.DDP5.1.x264_SkiesIT.mkv
    http://www.mekafile.com/dl.php?f=yh763acblH5x

    The.Tick.2016.S01E10.Risky.Bismuth.1080p.AMZN.WEB-DL.DDP5.1.x264_SkiesIT.mkv
    http://www.mekafile.com/dl.php?f=Sl7833cblHhh

    The.Tick.2016.S01E11.The.Beginning.of.the.End.1080 p.AMZN.WEB-DL.DDP5.1.x264_SkiesIT.mkv
    http://www.mekafile.com/dl.php?f=7c7d75cblHrr

    The.Tick.2016.S02E01.Lesson.One.Think.Quick.1080p. AMZN.WEB-DL.DDP5.1.x264_SkiesIT.mkv
    http://www.mekafile.com/dl.php?f=hze624cblHI2

    The.Tick.2016.S02E02.A.E.G.I.S.and.You.1080p.AMZN. WEB-DL.DDP5.1.x264_SkiesIT.mkv
    http://www.mekafile.com/dl.php?f=ONd5cbcblI2t

    The.Tick.2016.S02E03.Hot.Beige.1080p.AMZN.WEB-DL.DDP5.1.x264_SkiesIT.mkv
    http://www.mekafile.com/dl.php?f=uY0f6fcblIk5

    The.Tick.2016.S02E04.Blood.and.Cake.1080p.AMZN.WEB-DL.DDP5.1.x264_SkiesIT.mkv
    http://www.mekafile.com/dl.php?f=ITdd85cblIv9

    The.Tick.2016.S02E05.Magic.is.Real.1080p.AMZN.WEB-DL.DDP5.1.x264_SkiesIT.mkv
    http://www.mekafile.com/dl.php?f=FHbdf9cblIFE

    The.Tick.2016.S02E06.Categorically.Speaking.1080p. AMZN.WEB-DL.DDP5.1.x264_SkiesIT.mkv
    http://www.mekafile.com/dl.php?f=nJdf60cblISY

    The.Tick.2016.S02E07.Lei-Lo.Ho.1080p.AMZN.WEB-DL.DDP5.1.x264_SkiesIT.mkv
    http://www.mekafile.com/dl.php?f=Apd90bcblJ3V

    The.Tick.2016.S02E08.Joan.1080p.AMZN.WEB-DL.DDP5.1.x264_SkiesIT.mkv
    http://www.mekafile.com/dl.php?f=QLf2d3cblJfr

    The.Tick.2016.S02E09.In.the.Woods.1080p.AMZN.WEB-DL.DDP5.1.x264_SkiesIT.mkv
    http://www.mekafile.com/dl.php?f=ys83a1cblJpu

    10
    http://www.mekafile.com/dl.php?f=Hg9293cbC3IJ
    12
    http://www.mekafile.com/dl.php?f=sn761ecbC8q1

  2. The Following User Says Thank You to Duckload.us For This Useful Post:

    zhad01 (07-09-2020)

  3. #2
    Senior Member
    สมัครเมื่อ
    Jul 2013
    โพสต์
    850
    Thanks
    0
    Thanked 0 Times in 0 Posts
    ขอบคุณครับผม

+ ตอบกลับกระทู้

ข้อมูลกระทู้

Users Browsing this Thread

ในขณะนี้มี 1 ท่านดูกระทู้อยู่. (0 สมาชิกและ 1 ผู้เยี่ยมชม)

     

กฎการโพสต์ข้อความ

  • ท่าน ไม่สามารถ ตั้งกระทู้ใหม่ได้
  • ท่าน ไม่สามารถ ตอบกระทู้ได้
  • ท่าน ไม่สามารถ แนบไฟล์ได้
  • ท่าน ไม่สามารถ แก้ไขข้อความโพสต์ได้
  • BB code สถานะ เปิด
  • Smilies สถานะ เปิด
  • [IMG] สถานะ เปิด
  • HTML สถานะ ปิด