+ ตอบกลับกระทู้
สรุปผลการค้นหา 1 ถึง 4 จากทั้งหมด 4
  1. #1
    Administrators รูปส่วนตัว Duckload.us
    สมัครเมื่อ
    Dec 2010
    โพสต์
    129,665
    Thanks
    7
    Thanked 133,636 Times in 59,173 Posts

    Lightbulb [ฝรั่ง]-[HBO] The Outsider Season 1 Completed[เสียง:อังกฤษ AC3 5.1 ][[บรรยาย: ไทย HBO PGS-อังกฤษ PGS]-WEB-DL.H.264.1080p. [From HD-TV]-[Soundtrack บรรยายไทย]




    เรื่องย่อ
    ป็นซีรีย์ฝรั่งอีกเรื่องที่สร้างขึ้นจากนวนิยายที่ขา ยดีที่สุดของสตีเฟ่นคิง เมื่อร่างของแฟรงกี้ ปีเตอร์สัน เด็กชายอายุ 11 ปีถูกพบในป่าจอร์เจีย ตำรวจนักสืบราล์ฟ แอนเดอร์สัน เข้ามารับคดีและเริ่มสืบสวนคดีฆาตกรรมที่น่าสยดสยอง พยานและหลักฐานทางกายภาพชี้ไปที่ครูในพื้นที่และโค้ช เบสบอล เทอร์รี่ เมตแลนด์ แต่ใครจะเป็นคนร้ายตัวจริงนั้นคงต้องร่วมกันเข้าไปค้ นหาคำตอบพร้อมๆกันได้ใน The Outsider Season 1

    Video
    ID : 1
    Format : AVC
    Format/Info : Advanced Video Codec
    Format profile : [email protected]
    Format settings, CABAC : Yes
    Format settings, RefFrames : 4 frames
    Codec ID : V_MPEG4/ISO/AVC
    Duration : 1 h 0 min
    Bit rate mode : Constant
    Bit rate : 6 514 kb/s
    Nominal bit rate : 10 000 kb/s
    Width : 1 920 pixels
    Height : 1 080 pixels
    Display aspect ratio : 16:9
    Frame rate mode : Constant
    Frame rate : 23.976 (24000/1001) FPS
    Color space : YUV
    Chroma subsampling : 4:2:0
    Bit depth : 8 bits
    Scan type : Progressive
    Bits/(Pixel*Frame) : 0.131
    Stream size : 2.77 GiB (90%)
    Default : Yes
    Forced : No
    Color range : Limited
    Color primaries : BT.709
    Transfer characteristics : BT.709
    Matrix coefficients : BT.709

    Audio
    ID : 2
    Format : E-AC-3
    Format/Info : Enhanced Audio Coding 3
    Format settings, Endianness : Big
    Codec ID : A_EAC3
    Duration : 1 h 0 min
    Bit rate mode : Constant
    Bit rate : 640 kb/s
    Channel(s) : 6 channels
    Channel positions : Front: L C R, Side: L R, LFE
    Sampling rate : 48.0 kHz
    Frame rate : 187.500 FPS (256 SPF)
    Compression mode : Lossy
    Delay relative to video : 8 ms
    Stream size : 278 MiB (9%)
    Language : English
    Service kind : Complete Main
    Default : Yes
    Forced : No

    Text #1
    ID : 3
    Format : PGS
    Muxing mode : zlib
    Codec ID : S_HDMV/PGS
    Codec ID/Info : Picture based subtitle format used on BDs/HD-DVDs
    Duration : 55 min 10 s
    Bit rate : 46.9 kb/s
    Count of elements : 1382
    Stream size : 18.5 MiB (1%)
    Title : Thai HBO PGS
    Language : Thai
    Default : Yes
    Forced : No

    Text #2
    ID : 4
    Format : PGS
    Muxing mode : zlib
    Codec ID : S_HDMV/PGS
    Codec ID/Info : Picture based subtitle format used on BDs/HD-DVDs
    Duration : 1 h 0 min
    Bit rate : 47.3 kb/s
    Count of elements : 1732
    Stream size : 20.5 MiB (1%)
    Title : Eglish PGS
    Language : English
    Default : No
    Forced : No

    Text #3
    ID : 5
    Format : UTF-8
    Codec ID : S_TEXT/UTF8
    Codec ID/Info : UTF-8 Plain Text
    Duration : 1 h 0 min
    Bit rate : 67 b/s
    Count of elements : 866
    Stream size : 29.9 KiB (0%)
    Title : SDH
    Language : English
    Default : No
    Forced : No








    http://www.filecondo.com/dl.php?f=Md17e91Lvild

  2. The Following User Says Thank You to Duckload.us For This Useful Post:

    kappa (07-09-2021)

  3. #2
    Senior Member
    สมัครเมื่อ
    Jul 2013
    โพสต์
    2,505
    Thanks
    0
    Thanked 0 Times in 0 Posts
    ขอบคุณครับ

  4. #3
    Senior Member
    สมัครเมื่อ
    Jul 2013
    โพสต์
    2,505
    Thanks
    0
    Thanked 0 Times in 0 Posts
    มีไม่ครบเหรอครับ มี ep 2 / 3 / 6 / 7 / 8

  5. #4
    Junior Member
    สมัครเมื่อ
    Jul 2015
    โพสต์
    13
    Thanks
    1
    Thanked 0 Times in 0 Posts
    ขอบคุณ ค่ะ

+ ตอบกลับกระทู้

ข้อมูลกระทู้

Users Browsing this Thread

ในขณะนี้มี 1 ท่านดูกระทู้อยู่. (0 สมาชิกและ 1 ผู้เยี่ยมชม)

     

กฎการโพสต์ข้อความ

  • ท่าน ไม่สามารถ ตั้งกระทู้ใหม่ได้
  • ท่าน ไม่สามารถ ตอบกระทู้ได้
  • ท่าน ไม่สามารถ แนบไฟล์ได้
  • ท่าน ไม่สามารถ แก้ไขข้อความโพสต์ได้
  • BB code สถานะ เปิด
  • Smilies สถานะ เปิด
  • [IMG] สถานะ เปิด
  • HTML สถานะ ปิด