+ ตอบกลับกระทู้
สรุปผลการค้นหา 1 ถึง 3 จากทั้งหมด 3
  1. #1
    Administrators รูปส่วนตัว Duckload.us
    สมัครเมื่อ
    Dec 2010
    โพสต์
    127,911
    Thanks
    7
    Thanked 132,098 Times in 58,486 Posts

    Thumbs up Lootcase (2020) WEB-DL AC3-2.0 (อินเดีย)[พากย์:ไทย][SUB:NO][1080p] แนว/ประเภท: ตลก , อาชญากรรม



    IMDB: 7.6/10 (14,324 votes)
    ชื่อภาพยนตร์: Lootcase (2020)
    ผู้กำกับภาพยนตร์: Rajesh Krishnan ผู้เขียนบทภาพยนตร์: Kapil Sawant , Rajesh Krishnan
    นักแสดง: Kunal Khemu, Rasika Dugal, Vijay Raaz แนว/ประเภท: ตลก , อาชญากรรม
    ความยาว: 2 ชม. 12 นาที วันที่ฉาย: 31 กรกฎาคม 2020

    Nandan Kumar เจอกระเป๋าเดินทางและพบว่ามันเต็มไปด้วยเงินสด เขาหยิบกระเป๋าเดินทางและในไม่ช้าก็พบว่าตัวเองถูกไล ่ล่าโดยนักเลงชื่อดัง,ตำรวจผู้ซื่อสัตย์และรัฐมนตรีท ี่ต้องการกระเป๋าเดินทางที่เต็มไปด้วยเงินสดและข้อมู ลการทุจริตของผู้มีอำนาจ

    Format : Matroska
    Format version : Version 4
    File size : 3.70 GiB
    Duration : 2 h 6 min
    Overall bit rate : 4 198 kb/s
    Movie name : Lootcase (2020)_©GOLD CUP™_WWW.TT-TORRENT.COM

    Video
    ID : 1
    Format : AVC
    Format/Info : Advanced Video Codec
    Format profile : [email protected]
    Format settings : CABAC / 2 Ref Frames
    Format settings, CABAC : Yes
    Format settings, Reference : 2 frames
    Format settings, GOP : M=1, N=25
    Codec ID : V_MPEG4/ISO/AVC
    Duration : 2 h 6 min
    Bit rate : 4 003 kb/s
    Width : 1 920 pixels
    Height : 800 pixels
    Display aspect ratio : 2.40:1
    Frame rate mode : Constant
    Frame rate : 29.970 (30000/1001) FPS
    Color space : YUV
    Chroma subsampling : 4:2:0
    Bit depth : 8 bits
    Scan type : Progressive
    Bits/(Pixel*Frame) : 0.087
    Stream size : 3.53 GiB (95%)
    Title : Lootcase (2020)_©GOLD CUP™
    Language : Thai
    Default : Yes
    Forced : No

    Audio
    ID : 2
    Format : AC-3
    Format/Info : Audio Coding 3
    Commercial name : Dolby Digital
    Codec ID : A_AC3
    Duration : 2 h 6 min
    Bit rate mode : Constant
    Bit rate : 192 kb/s
    Channel(s) : 2 channels
    Channel layout : L R
    Sampling rate : 44.1 kHz
    Frame rate : 28.711 FPS (1536 SPF)
    Compression mode : Lossy
    Stream size : 173 MiB (5%)
    Title : Th.2.0.AC3.192k
    Language : Thai
    Service kind : Complete Main
    Default : Yes
    Forced : No





    Download:cornfile
    http://cornfile.com/dz35sw0fo373
    Download:filecondo
    http://www.filecondo.com/dl.php?f=k52ed01LFZvm

  2. The Following 2 Users Say Thank You to Duckload.us For This Useful Post:

    gaszolineskywalker (05-11-2021), noi54 (05-10-2021)

  3. #2
    Senior Member
    สมัครเมื่อ
    Jul 2013
    โพสต์
    2,281
    Thanks
    0
    Thanked 0 Times in 0 Posts
    ขอบคุณครับ

  4. #3
    Senior Member
    สมัครเมื่อ
    Oct 2012
    โพสต์
    1,533
    Thanks
    2,461
    Thanked 0 Times in 0 Posts
    ขอบคุณครับ

+ ตอบกลับกระทู้

ข้อมูลกระทู้

Users Browsing this Thread

ในขณะนี้มี 1 ท่านดูกระทู้อยู่. (0 สมาชิกและ 1 ผู้เยี่ยมชม)

     

กฎการโพสต์ข้อความ

  • ท่าน ไม่สามารถ ตั้งกระทู้ใหม่ได้
  • ท่าน ไม่สามารถ ตอบกระทู้ได้
  • ท่าน ไม่สามารถ แนบไฟล์ได้
  • ท่าน ไม่สามารถ แก้ไขข้อความโพสต์ได้
  • BB code สถานะ เปิด
  • Smilies สถานะ เปิด
  • [IMG] สถานะ เปิด
  • HTML สถานะ ปิด