+ ตอบกลับกระทู้
สรุปผลการค้นหา 1 ถึง 3 จากทั้งหมด 3
  1. #1
    Administrators รูปส่วนตัว Duckload.us
    สมัครเมื่อ
    Dec 2010
    โพสต์
    127,911
    Thanks
    7
    Thanked 132,098 Times in 58,486 Posts

    Thumbs up AGEFIGHTER WORLDS COLLIDE (2020) WEB-DL AC3-2.0 [พากย์:ไทย/อังกฤษ][SUB:ไทยฝัง][1080p]



    Reiss เป็นแชมป์เปี้ยนที่ยิ่งใหญ่ที่สุดที่เคยต่อสู้ในกรง LEGENDS แต่เมื่อ แม็กซ์ ผู้จัดการคู่มวย จัดคู่ให้เขาพบกับแรนดี้สโตนซูเปอร์สตาร์นักมวยปล้ำไ รส์ก็พบว่าตัวเองต้องเจอกับการต่อสู้ที่ยากที่สุดในช ีวิต

    Format : Matroska

    Format version : Version 4

    File size : 3.51 GiB

    Duration : 1 h 33 min

    Overall bit rate mode : Constant

    Overall bit rate : 5 383 kb/s

    Movie name : AGEFIGHTER WORLDS COLLIDE (2020) _©GOLD CUP™_WWW.TT-TORRENT.COM

    Video

    ID : 1

    Format : AVC

    Format/Info : Advanced Video Codec

    Format profile : [email protected]

    Format settings : CABAC / 1 Ref Frames

    Format settings, CABAC : Yes

    Format settings, Reference : 1 frame

    Format settings, GOP : M=1, N=25

    Codec ID : V_MPEG4/ISO/AVC

    Duration : 1 h 33 min

    Bit rate mode : Constant

    Bit rate : 5 000 kb/s

    Width : 1 920 pixels

    Height : 950 pixels

    Display aspect ratio : 2.021

    Frame rate mode : Constant

    Frame rate : 29.970 (30000/1001) FPS

    Color space : YUV

    Chroma subsampling : 4:2:0

    Bit depth : 8 bits

    Scan type : Progressive

    Bits/(Pixel*Frame) : 0.091

    Stream size : 3.26 GiB (93%)

    Title : AGEFIGHTER WORLDS COLLIDE (2020) _©GOLD CUP™

    Language : Thai

    Default : Yes

    Forced : No

    Audio #1

    ID : 2

    Format : AC-3

    Format/Info : Audio Coding 3

    Commercial name : Dolby Digital

    Codec ID : A_AC3

    Duration : 1 h 33 min

    Bit rate mode : Constant

    Bit rate : 192 kb/s

    Channel(s) : 2 channels

    Channel layout : L R

    Sampling rate : 44.1 kHz

    Frame rate : 28.711 FPS (1536 SPF)

    Compression mode : Lossy

    Stream size : 128 MiB (4%)

    Title : Th.2.0.AC3.192k

    Language : Thai

    Service kind : Complete Main

    Default : Yes

    Forced : No

    Audio #2

    ID : 3

    Format : AC-3

    Format/Info : Audio Coding 3

    Commercial name : Dolby Digital

    Codec ID : A_AC3

    Duration : 1 h 33 min

    Bit rate mode : Constant

    Bit rate : 192 kb/s

    Channel(s) : 2 channels

    Channel layout : L R

    Sampling rate : 44.1 kHz

    Frame rate : 28.711 FPS (1536 SPF)

    Compression mode : Lossy

    Stream size : 128 MiB (4%)

    Title : En.2.0.AC3.192k

    Language : English

    Service kind : Complete Main

    Default : No

    Forced : No





    Download:cornfile
    http://cornfile.com/fjf4spc4cs1m
    Download:filecondo
    http://www.filecondo.com/dl.php?f=me7e7e1LIE7u

  2. The Following 2 Users Say Thank You to Duckload.us For This Useful Post:

    jackjangri (05-22-2021), Jodz14 (05-21-2021)

  3. #2
    Senior Member
    สมัครเมื่อ
    Jul 2013
    โพสต์
    2,281
    Thanks
    0
    Thanked 0 Times in 0 Posts
    ขอบคุณครับ

  4. #3
    Senior Member
    สมัครเมื่อ
    Jun 2011
    โพสต์
    149
    Thanks
    304
    Thanked 40 Times in 29 Posts
    ขอบคุณครับ

+ ตอบกลับกระทู้

ข้อมูลกระทู้

Users Browsing this Thread

ในขณะนี้มี 1 ท่านดูกระทู้อยู่. (0 สมาชิกและ 1 ผู้เยี่ยมชม)

     

กฎการโพสต์ข้อความ

  • ท่าน ไม่สามารถ ตั้งกระทู้ใหม่ได้
  • ท่าน ไม่สามารถ ตอบกระทู้ได้
  • ท่าน ไม่สามารถ แนบไฟล์ได้
  • ท่าน ไม่สามารถ แก้ไขข้อความโพสต์ได้
  • BB code สถานะ เปิด
  • Smilies สถานะ เปิด
  • [IMG] สถานะ เปิด
  • HTML สถานะ ปิด