+ ตอบกลับกระทู้
สรุปผลการค้นหา 1 ถึง 8 จากทั้งหมด 8
  1. #1
    Administrators รูปส่วนตัว Duckload.us
    สมัครเมื่อ
    Dec 2010
    โพสต์
    127,911
    Thanks
    7
    Thanked 132,094 Times in 58,485 Posts

    Thumbs up [ฝรั่ง]-[HBOMax] The Conjuring - The Devil Made Me Do It (2021) เดอะ คอนเจอริ่ง คนเรียกผี 3 มัจจุราชบงการ-WEB-DL.EAC-3.1080p. [Modified]-[พากย์อังกฤษ Atmos 5.1 บรรยายไทย-อังกฤษ]




    เรื่องราวของความหวาดกลัว เหตุฆาตกรรม และปีศาจที่ไม่มีใครรู้จัก ขนาดคนเรียกผีตัวจริงเสียงจริงอย่าง เอ๊ด และ ลอร์เรน วอร์เรน ยังตกตะลึง อ้างอิงจากหนึ่งในแฟ้มคดีที่สะเทือนขวัญที่สุดของพวก เขา เริ่มต้นจากการต้องต่อสู้เพื่อจิตวิญญาณของ ชายหนุ่ม ก่อนจะได้ไปพบกับสิ่งที่เหนือกว่าที่พวกเขาเคยเจอมา และกลายเป็นครั้งแรกในประวัติศาสตร์ของสหรัฐอเมริกาท ี่ฆาตกรอ้างเหตุผลการฆาตกรรมของเขาว่าผู้อยู่เบื้องห ลังคือ ปีศาจมัจจุราช

    Format : Matroska
    Format version : Version 4
    File size : 4.22 GiB
    Duration : 1 h 51 min
    Overall bit rate : 5 403 kb/s
    Encoded date : UTC 2021-06-05 12:26:29
    Writing application : mkvmerge v57.0.0 ('Till The End') 64-bit
    Writing library : libebml v1.4.2 + libmatroska v1.6.4

    Video
    ID : 1
    Format : AVC
    Format/Info : Advanced Video Codec
    Format profile : [email protected]
    Format settings : CABAC / 3 Ref Frames
    Format settings, CABAC : Yes
    Format settings, Reference : 3 frames
    Codec ID : V_MPEG4/ISO/AVC
    Duration : 1 h 51 min
    Bit rate : 4 616 kb/s
    Width : 1 920 pixels
    Height : 804 pixels
    Display aspect ratio : 2.40:1
    Frame rate mode : Constant
    Frame rate : 23.976 (24000/1001) FPS
    Color space : YUV
    Chroma subsampling : 4:2:0
    Bit depth : 8 bits
    Scan type : Progressive
    Bits/(Pixel*Frame) : 0.125
    Stream size : 3.61 GiB (85%)
    Language : English
    Default : Yes
    Forced : No
    Color range : Limited
    Color primaries : BT.709
    Transfer characteristics : BT.709
    Matrix coefficients : BT.709

    Audio
    ID : 2
    Format : E-AC-3 JOC
    Format/Info : Enhanced AC-3 with Joint Object Coding
    Commercial name : Dolby Digital Plus with Dolby Atmos
    Codec ID : A_EAC3
    Duration : 1 h 51 min
    Bit rate mode : Constant
    Bit rate : 768 kb/s
    Channel(s) : 6 channels
    Channel layout : L R C LFE Ls Rs
    Sampling rate : 48.0 kHz
    Frame rate : 31.250 FPS (1536 SPF)
    Compression mode : Lossy
    Stream size : 614 MiB (14%)
    Title : E-AC3 Atmos English
    Language : English
    Service kind : Complete Main
    Default : Yes
    Forced : No
    Complexity index : 16
    Number of dynamic objects : 15
    Bed channel count : 1 channel
    Bed channel configuration : LFE

    Text #1
    ID : 3
    Format : VobSub
    Muxing mode : zlib
    Codec ID : S_VOBSUB
    Codec ID/Info : Picture based subtitle format used on DVDs
    Duration : 1 h 46 min
    Bit rate : 9 470 b/s
    Count of elements : 998
    Stream size : 7.19 MiB (0%)
    Title : Sub Thai 1080p
    Language : Thai
    Default : No
    Forced : No

    Text #2
    ID : 4
    Format : UTF-8
    Codec ID : S_TEXT/UTF8
    Codec ID/Info : UTF-8 Plain Text
    Duration : 1 h 46 min
    Bit rate : 97 b/s
    Count of elements : 998
    Stream size : 75.6 KiB (0%)
    Title : Sub Thai SRT
    Language : Thai
    Default : No
    Forced : No

    Text #3
    ID : 5
    Format : PGS
    Muxing mode : zlib
    Codec ID : S_HDMV/PGS
    Codec ID/Info : Picture based subtitle format used on BDs/HD-DVDs
    Duration : 1 h 46 min
    Bit rate : 26.3 kb/s
    Count of elements : 1996
    Stream size : 20.0 MiB (0%)
    Title : Sub Thai PGS
    Language : Thai
    Default : Yes
    Forced : No

    Text #4
    ID : 6
    Format : UTF-8
    Codec ID : S_TEXT/UTF8
    Codec ID/Info : UTF-8 Plain Text
    Duration : 1 h 45 min
    Bit rate : 47 b/s
    Count of elements : 1239
    Stream size : 37.2 KiB (0%)
    Title : Sub English SRT
    Language : English
    Default : No
    Forced : No






    Download:cornfile
    http://cornfile.com/3r8ws6wppead
    Download:filecondo
    http://www.filecondo.com/dl.php?f=Q364981LPvNL

  2. The Following 7 Users Say Thank You to Duckload.us For This Useful Post:

    bigbang06 (06-06-2021), jackjangri (06-05-2021), masaomi (06-09-2021), NaiWan (06-07-2021), noi54 (06-08-2021), sawara (06-09-2021), Wesker_TOT (06-06-2021)

  3. #2
    Senior Member
    สมัครเมื่อ
    Jun 2011
    โพสต์
    149
    Thanks
    304
    Thanked 40 Times in 29 Posts
    thank you...

  4. #3
    Senior Member
    สมัครเมื่อ
    Dec 2013
    โพสต์
    2,997
    Thanks
    4,916
    Thanked 0 Times in 0 Posts
    ขอบคุณครับ...

  5. #4
    Senior Member
    สมัครเมื่อ
    Apr 2020
    โพสต์
    120
    Thanks
    0
    Thanked 0 Times in 0 Posts
    ขอบคุณครับ

  6. #5
    Junior Member
    สมัครเมื่อ
    Sep 2012
    โพสต์
    5
    Thanks
    0
    Thanked 0 Times in 0 Posts
    ทำไม Filecondo โหลดไม่ได้

  7. #6
    Junior Member
    สมัครเมื่อ
    Jul 2012
    โพสต์
    7
    Thanks
    0
    Thanked 0 Times in 0 Posts
    Filecondo โหลดไม่ได้เหมือนกันครับ - ไฟล์ยังไม่พร้อมสำหรับการดาวโหลด ระบบกำลังประมวลผลไฟล์

  8. #7
    Administrators รูปส่วนตัว Duckload.us
    สมัครเมื่อ
    Dec 2010
    โพสต์
    127,911
    Thanks
    7
    Thanked 132,094 Times in 58,485 Posts
    อ้างอิง โพสต์ต้นฉบับโดยคุณ zakiinlove ดูโพสต์
    Filecondo โหลดไม่ได้เหมือนกันครับ - ไฟล์ยังไม่พร้อมสำหรับการดาวโหลด ระบบกำลังประมวลผลไฟล์
    ระบบ ประมวลผลไฟล์ มีปัญหาครับ แจ้งผู้ดูแลเร่งแก้ไขแล้ว ขออภัยในความไม่สะดวกครับท่าน

  9. #8
    Senior Member
    สมัครเมื่อ
    Jul 2013
    โพสต์
    2,265
    Thanks
    0
    Thanked 0 Times in 0 Posts
    ขอบคุณครับ

+ ตอบกลับกระทู้

ข้อมูลกระทู้

Users Browsing this Thread

ในขณะนี้มี 1 ท่านดูกระทู้อยู่. (0 สมาชิกและ 1 ผู้เยี่ยมชม)

     

กฎการโพสต์ข้อความ

  • ท่าน ไม่สามารถ ตั้งกระทู้ใหม่ได้
  • ท่าน ไม่สามารถ ตอบกระทู้ได้
  • ท่าน ไม่สามารถ แนบไฟล์ได้
  • ท่าน ไม่สามารถ แก้ไขข้อความโพสต์ได้
  • BB code สถานะ เปิด
  • Smilies สถานะ เปิด
  • [IMG] สถานะ เปิด
  • HTML สถานะ ปิด