+ ตอบกลับกระทู้
สรุปผลการค้นหา 1 ถึง 3 จากทั้งหมด 3
  1. #1
    Administrators รูปส่วนตัว Duckload.us
    สมัครเมื่อ
    Dec 2010
    โพสต์
    132,379
    Thanks
    7
    Thanked 135,976 Times in 60,128 Posts

    Thumbs up [ฝรั่ง] - The Walking Dead Season 11 (2021) Episode 01-06 -1080p.WEB.DD5.1.H264 [ เสียงอังกฤษ 5.1 + บรรยายอังกฤษ - ไทย PGS,SRT จาก Disney+ Hotstar TH ]



    แอเคอรอน ตอนที่ 1 : กลุ่มของแดริลเข้าไปค้นและกวาดสิ่งของที่ยังใช้ได้จา กฐานทัพ แม็กกี้เล่าเรื่องของตัวเองออกมา ซึ่งนำไปสู่ภารกิจเอาตัวรอดครั้งใหม่


    Format : Matroska
    Format version : Version 4
    File size : 4.51 GiB
    Duration : 51 min 42 s
    Overall bit rate : 12.5 Mb/s
    Encoded date : UTC 2021-09-10 08:19:43
    Writing application : mkvmerge v26.0.0 ('In The Game') 64-bit
    Writing library : libebml v1.3.6 + libmatroska v1.4.9

    Video
    ID : 1
    Format : AVC
    Format/Info : Advanced Video Codec
    Format profile : [email protected]
    Format settings : CABAC / 4 Ref Frames
    Format settings, CABAC : Yes
    Format settings, Reference : 4 frames
    Codec ID : V_MPEG4/ISO/AVC
    Duration : 51 min 42 s
    Bit rate : 11.8 Mb/s
    Width : 1 920 pixels
    Height : 1 080 pixels
    Display aspect ratio : 16:9
    Frame rate mode : Constant
    Frame rate : 24.000 FPS
    Color space : YUV
    Chroma subsampling : 4:2:0
    Bit depth : 8 bits
    Scan type : Progressive
    Bits/(Pixel*Frame) : 0.238
    Stream size : 4.28 GiB (95%)
    Default : Yes
    Forced : No
    Color range : Limited
    Color primaries : BT.709
    Transfer characteristics : BT.709
    Matrix coefficients : BT.709

    Audio
    ID : 2
    Format : E-AC-3
    Format/Info : Enhanced AC-3
    Commercial name : Dolby Digital Plus
    Codec ID : A_EAC3
    Duration : 51 min 42 s
    Bit rate mode : Constant
    Bit rate : 640 kb/s
    Channel(s) : 6 channels
    Channel layout : L R C LFE Ls Rs
    Sampling rate : 48.0 kHz
    Frame rate : 31.250 FPS (1536 SPF)
    Compression mode : Lossy
    Delay relative to video : 16 ms
    Stream size : 237 MiB (5%)
    Title : English 5.1
    Language : English
    Service kind : Complete Main
    Default : Yes
    Forced : No

    Text #1
    ID : 3
    Format : UTF-8
    Codec ID : S_TEXT/UTF8
    Codec ID/Info : UTF-8 Plain Text
    Duration : 51 min 39 s
    Bit rate : 49 b/s
    Count of elements : 841
    Stream size : 18.7 KiB (0%)
    Title : English SRT
    Language : English
    Default : No
    Forced : No

    Text #2
    ID : 4
    Format : UTF-8
    Codec ID : S_TEXT/UTF8
    Codec ID/Info : UTF-8 Plain Text
    Duration : 42 min 2 s
    Bit rate : 64 b/s
    Count of elements : 313
    Stream size : 19.7 KiB (0%)
    Title : Thai SRT - Disney+ Hotstar TH
    Language : Thai
    Default : No
    Forced : No

    Text #3
    ID : 5
    Format : PGS
    Codec ID : S_HDMV/PGS
    Codec ID/Info : Picture based subtitle format used on BDs/HD-DVDs
    Duration : 42 min 2 s
    Bit rate : 16.1 kb/s
    Count of elements : 626
    Stream size : 4.85 MiB (0%)
    Title : Thai PGS - Disney+ Hotstar TH
    Language : Thai
    Default : Yes
    Forced : Yes




    Download:filecondo
    01 http://www.filecondo.com/dl.php?f=r57fd41Mm0uQ
    02 http://www.filecondo.com/dl.php?f=l86f981MnTyO
    03 http://www.filecondo.com/dl.php?f=q08e021MoFHO
    04 http://www.filecondo.com/dl.php?f=x0a9f91MrayE
    05 http://www.filecondo.com/dl.php?f=U682481Mu2Y8
    06 http://www.filecondo.com/dl.php?f=h6bf701MwB7S
    Download:cornfile
    01 https://www.cornfile.com/p66is8m3mm65
    02 https://www.cornfile.com/q3vrseyncf3q
    03 https://www.cornfile.com/6rzn1ul7r0ap
    04 https://www.cornfile.com/dczohxh9fyil
    05 https://www.cornfile.com/1rdvpogyczg2
    06 http://www.filecondo.com/dl.php?f=h6bf701MwB7S

  2. The Following 2 Users Say Thank You to Duckload.us For This Useful Post:

    virusring (09-08-2021), Wesker_TOT (09-08-2021)

  3. #2
    Senior Member
    สมัครเมื่อ
    Dec 2013
    โพสต์
    3,210
    Thanks
    5,124
    Thanked 0 Times in 0 Posts
    ขอบคุณครับ...

  4. #3
    Junior Member
    สมัครเมื่อ
    Dec 2013
    โพสต์
    1
    Thanks
    0
    Thanked 0 Times in 0 Posts
    ขอตอน 6 cornfile ด้วยครับ

+ ตอบกลับกระทู้

ข้อมูลกระทู้

Users Browsing this Thread

ในขณะนี้มี 1 ท่านดูกระทู้อยู่. (0 สมาชิกและ 1 ผู้เยี่ยมชม)

     

กฎการโพสต์ข้อความ

  • ท่าน ไม่สามารถ ตั้งกระทู้ใหม่ได้
  • ท่าน ไม่สามารถ ตอบกระทู้ได้
  • ท่าน ไม่สามารถ แนบไฟล์ได้
  • ท่าน ไม่สามารถ แก้ไขข้อความโพสต์ได้
  • BB code สถานะ เปิด
  • Smilies สถานะ เปิด
  • [IMG] สถานะ เปิด
  • HTML สถานะ ปิด