+ ตอบกลับกระทู้
สรุปผลการค้นหา 1 ถึง 3 จากทั้งหมด 3
  1. #1
    Administrators รูปส่วนตัว Duckload.us
    สมัครเมื่อ
    Dec 2010
    โพสต์
    135,849
    Thanks
    7
    Thanked 140,644 Times in 61,731 Posts

    Lightbulb [เกาหลี]-[Revolutionary Love หัวใจไม่มีกรอบ Choi Si Won, Kang So Ra, Gong Myung, Lee Jae Yoon, Kim Ye Won TH Ep.1-16/End]-WEB-DL.H.264.1080p. [From HD-TV]-[Sound:Thai/Korea]-[Sub:Thai]





    ซีรี่ย์จีน: Revolutionary Love, Byun Hyuk's Love
    ชื่อภาษาไทย: หัวใจไม่มีกรอบ
    ประเภท: Romance, Comedy
    จำนวนตอน: 16
    นำแสดงโดย: Choi Si Won, Kang So Ra, Gong Myung, Lee Jae Yoon, Kim Ye Won
    ผู้กำกับ: Song Hyun Wook, Lee Jong Jae
    เขียนบทโดย: Joo Hyun
    ออกอากาศทางสถานีโทรทัศน์: VIU
    เริ่มออกอากาศ: 21 ตุลาคม 2021 - 12 พฤศจิกายน 2021
    เวลาออกอากาศ: ทุกวันพฤหัส & วันศุกร์ เวลา 08:00 น.
    Choi Shi Won as Byun Hyuk
    Han Chang Min as younger Byun Hyuk
    Kang So Ra as Baek Joon
    Yoo Eun Mi as younger Baek Joon
    Gong Myung as Kwon Je Hoon
    Joo Seung Hyuk as younger Je Hoon
    People around Byun Hyuk
    Lee Jae Yoon as Byun Woo Sung (Byun Hyuk's older brother)
    Choi Jae Sung as Byun Gang Soo (Byun Hyuk's father)
    Kyun Mi Ri as Jung Yeo Jin (Byun Hyuk's mother)
    Seo Yi Ahn as Hong Chae Ri (Byun Hyuk's ex-girlfriend)
    Jung Chan Bi as Byun Se Na (Byun Hyuk's younger sister)
    People around Baek Joon
    Kim Ye Won as Ha Yun Hee (Baek Joon's best friend)
    Jun Bae Soo as Baek Joon's father
    Hwang Young Hee as Baek Joon's mother
    People around Kwon Je Hoon
    Choi Kyu Hwan as Hwang Myung Soo (Seoul Central Court prosecutor)
    Lee Han Wie as Kwon Choon Sup (Je Hoon's father)
    Others
    Choi Dae Chul as Lee Tae Kyung (Baek Joon's construction company colleague)
    Seo Hyun Chul as Kim Ki Sup (Baek Joon's construction company colleague)
    Hwang Jung Min as Ahn Mi Yun (Baek Joon's construction company colleague)
    Kang Young Suk as Jang Chul Min (policeman)
    Kim Seung Wook as Sul Gi Hwan
    Song Young Kyu as CEO Min
    Kim Eung Suk as Byun Gang Ho (Byun Hyuk's uncle)
    Kim Ye Ryung as Byun Geum Hee (Byun Hyuk's aunt)
    Park Myung Hoon as Kong Chul Min
    Yoon Jung Hyuk as General Manager Han
    Guest Appearances
    Park Chul Min
    Lee Yoon Ji as hotel manager
    Kim Won Hyo
    Lee Myung Hoon
    Sysopsis: ละครคอมมาดี้เกี่ยวกับหนุ่มที่พยายามที่จะเปลี่ยนโลก ตามที่กล่าวไว้ก่อนหน้านี้ ชเวซีวอน (Choi Siwon) วง Super Junior จะรับบทเป็นบยอนฮยอกทายาทมหาเศรษฐีรุ่นที่สามที่ไม่ม ีงานทำ ซึ่งไม่มีเป้าหมายที่แท้จริงในชีวิตนอกเหนือจากการใช ้ชีวิตในแต่ละวันให้มีความสุขที่สุดเท่าที่จะเป็นไปไ ด้ คังโซรา จะรับบทเป็นเบคจุน ผู้หญิงที่ขยันขันแข็งที่ต่อสู้เพื่อหางานทำที่มั่นค งแม้จะมีพื้นฐานการศึกษาที่ดีก็ตาม กงมยอง รับบทเป็นควอนแจฮุน หัวหน้าทีมเลขานุการของบริษัทที่ครอบครัวของบยอนฮยอก เป็นเจ้าของ เป็นตัวละครที่ฉลาดที่ได้เข้าสู่เรื่องราวความรักสาม เศร้ากับบยอนฮยอกและเบคจุน มาติดตามชมกันได้ในซีรี่ย์เกาหลี Revolutionary Love หัวใจไม่มีกรอบ
    Credit:

    General
    Unique ID : 9632632814962182788519192955304346292 (0x73F2D7712BAD04B000B00182E5D02B4)
    Complete name : F:Revolutionary Love หัวใจไม่มีกรอบRevolutionary.Love.S01E09.2017.1080p .NF.WEB-DL.DDP2.0.x264.mkv
    Format : Matroska
    Format version : Version 4
    File size : 2.21 GiB
    Duration : 1 h 9 min
    Overall bit rate mode : Variable
    Overall bit rate : 4 551 kb/s
    Movie name : By RAWLEGEND
    Encoded date : UTC 2021-11-05 15:03:30
    Writing application : mkvmerge v19.0.0 ('Brave Captain') 64-bit
    Writing library : libebml v1.3.5 + libmatroska v1.4.8

    Video
    ID : 1
    Format : AVC
    Format/Info : Advanced Video Codec
    Format profile : [email protected]
    Format settings : CABAC / 3 Ref Frames
    Format settings, CABAC : Yes
    Format settings, Reference fra : 3 frames
    Codec ID : V_MPEG4/ISO/AVC
    Duration : 1 h 9 min
    Bit rate mode : Variable
    Bit rate : 4 220 kb/s
    Maximum bit rate : 6 330 kb/s
    Width : 1 920 pixels
    Height : 1 080 pixels
    Display aspect ratio : 16:9
    Frame rate mode : Constant
    Frame rate : 23.976 (24000/1001) FPS
    Color space : YUV
    Chroma subsampling : 4:2:0
    Bit depth : 8 bits
    Scan type : Progressive
    Bits/(Pixel*Frame) : 0.085
    Stream size : 2.04 GiB (93%)
    Writing library : x264 core 148 r2717 0d2410d
    Encoding settings : cabac=1 / ref=3 / deblock=1:0:0 / analyse=0x1:0x111 / me=umh / subme=10 / psy=1 / psy_rd=1.00:0.00 / mixed_ref=1 / me_range=24 / chroma_me=1 / trellis=2 / 8x8dct=0 / cqm=0 / deadzone=21,11 / fast_pskip=1 / chroma_qp_offset=-2 / threads=8 / lookahead_threads=1 / sliced_threads=0 / nr=0 / decimate=1 / interlaced=0 / bluray_compat=0 / stitchable=1 / constrained_intra=0 / bframes=2 / b_pyramid=0 / b_adapt=2 / b_bias=0 / direct=3 / weightb=1 / open_gop=0 / weightp=2 / keyint=250 / keyint_min=23 / scenecut=0 / intra_refresh=0 / rc_lookahead=48 / rc=2pass / mbtree=1 / bitrate=4220 / ratetol=1.0 / qcomp=0.50 / qpmin=6 / qpmax=51 / qpstep=4 / cplxblur=20.0 / qblur=0.5 / vbv_maxrate=6330 / vbv_bufsize=8440 / nal_hrd=vbr / filler=0 / ip_ratio=1.40 / aq=1:1.00
    Default : Yes
    Forced : No

    Audio #1
    ID : 2
    Format : AC-3
    Format/Info : Audio Coding 3
    Commercial name : Dolby Digital
    Codec ID : A_AC3
    Duration : 1 h 9 min
    Bit rate mode : Constant
    Bit rate : 192 kb/s
    Channel(s) : 2 channels
    Channel layout : L R
    Sampling rate : 48.0 kHz
    Frame rate : 31.250 FPS (1536 SPF)
    Compression mode : Lossy
    Stream size : 95.3 MiB (4%)
    Language : Thai
    Service kind : Complete Main
    Default : Yes
    Forced : No

    Audio #2
    ID : 3
    Format : E-AC-3
    Format/Info : Enhanced AC-3
    Commercial name : Dolby Digital Plus
    Codec ID : A_EAC3
    Duration : 1 h 9 min
    Bit rate mode : Constant
    Bit rate : 128 kb/s
    Channel(s) : 2 channels
    Channel layout : L R
    Sampling rate : 48.0 kHz
    Frame rate : 31.250 FPS (1536 SPF)
    Compression mode : Lossy
    Stream size : 63.5 MiB (3%)
    Language : Korean
    Service kind : Complete Main
    Default : No
    Forced : No

    Text #1
    ID : 4
    Format : UTF-8
    Codec ID : S_TEXT/UTF8
    Codec ID/Info : UTF-8 Plain Text
    Duration : 1 h 7 min
    Bit rate : 143 b/s
    Count of elements : 1046
    Stream size : 71.3 KiB (0%)
    Language : Thai
    Default : Yes
    Forced : No

    Text #2
    ID : 5
    Format : PGS
    Muxing mode : zlib
    Codec ID : S_HDMV/PGS
    Codec ID/Info : Picture based subtitle format used on BDs/HD-DVDs
    Duration : 1 h 7 min
    Bit rate : 27.7 kb/s
    Count of elements : 2092
    Stream size : 13.4 MiB (0%)
    Language : Thai
    Default : No
    Forced : No



    Revolutionary.Love.S01E16.END.2017.1080p.NF.WEB-DL.DDP2.0.x264.mkv
    http://www.filecondo.com/dl.php?f=S6c1591MNoxB
    Revolutionary.Love.S01E15.2017.1080p.NF.WEB-DL.DDP2.0.x264.mkv
    http://www.filecondo.com/dl.php?f=x8210b1MNowD
    Revolutionary.Love.S01E14.2017.1080p.NF.WEB-DL.DDP2.0.x264.mkv
    http://www.filecondo.com/dl.php?f=y96c431MNovG
    Revolutionary.Love.S01E13.2017.1080p.NF.WEB-DL.DDP2.0.x264.mkv
    http://www.filecondo.com/dl.php?f=O34bca1MNouG
    Revolutionary.Love.S01E12.2017.1080p.NF.WEB-DL.DDP2.0.x264.mkv
    http://www.filecondo.com/dl.php?f=U833231MNotI
    Revolutionary.Love.S01E11.2017.1080p.NF.WEB-DL.DDP2.0.x264.mkv
    http://www.filecondo.com/dl.php?f=n990f41MNosM
    Revolutionary.Love.S01E10.2017.1080p.NF.WEB-DL.DDP2.0.x264.mkv
    http://www.filecondo.com/dl.php?f=Z8b9431MNorO
    Revolutionary.Love.S01E09.2017.1080p.NF.WEB-DL.DDP2.0.x264.mkv
    http://www.filecondo.com/dl.php?f=I0b4b51MNorc
    Revolutionary.Love.S01E08.2017.1080p.NF.WEB-DL.DDP2.0.x264.mkv
    http://www.filecondo.com/dl.php?f=C50f511MNopR
    Revolutionary.Love.S01E07.2017.1080p.NF.WEB-DL.DDP2.0.x264.mkv
    http://www.filecondo.com/dl.php?f=Y52c271MNooV
    Revolutionary.Love.S01E06.2017.1080p.NF.WEB-DL.DDP2.0.x264.mkv
    http://www.filecondo.com/dl.php?f=Iebf4d1MNoo0
    Revolutionary.Love.S01E05.2017.1080p.NF.WEB-DL.DDP2.0.x264.mkv
    http://www.filecondo.com/dl.php?f=Ybcde21MNomZ
    Revolutionary.Love.S01E04.2017.1080p.NF.WEB-DL.DDP2.0.x264.mkv
    http://www.filecondo.com/dl.php?f=R666391MNom3
    Revolutionary.Love.S01E03.2017.1080p.NF.WEB-DL.DDP2.0.x264.mkv
    http://www.filecondo.com/dl.php?f=P50c531MNol5
    Revolutionary.Love.S01E02.2017.1080p.NF.WEB-DL.DDP2.0.x264.mkv
    http://www.filecondo.com/dl.php?f=Dd349d1MNok4
    Revolutionary.Love.S01E01.2017.1080p.NF.WEB-DL.DDP2.0.x264.mkv
    http://www.filecondo.com/dl.php?f=Z7269d1MNojb

  2. #2
    Member
    สมัครเมื่อ
    Jun 2018
    โพสต์
    78
    Thanks
    0
    Thanked 0 Times in 0 Posts
    ขอบคุณมากๆครับ

  3. #3
    Senior Member
    สมัครเมื่อ
    Aug 2012
    โพสต์
    453
    Thanks
    0
    Thanked 0 Times in 0 Posts
    ขอบคุณมากๆครับ

+ ตอบกลับกระทู้

ข้อมูลกระทู้

Users Browsing this Thread

ในขณะนี้มี 1 ท่านดูกระทู้อยู่. (0 สมาชิกและ 1 ผู้เยี่ยมชม)

     

กฎการโพสต์ข้อความ

  • ท่าน ไม่สามารถ ตั้งกระทู้ใหม่ได้
  • ท่าน ไม่สามารถ ตอบกระทู้ได้
  • ท่าน ไม่สามารถ แนบไฟล์ได้
  • ท่าน ไม่สามารถ แก้ไขข้อความโพสต์ได้
  • BB code สถานะ เปิด
  • Smilies สถานะ เปิด
  • [IMG] สถานะ เปิด
  • HTML สถานะ ปิด