+ ตอบกลับกระทู้
สรุปผลการค้นหา 1 ถึง 3 จากทั้งหมด 3
  1. #1
    Administrators รูปส่วนตัว Duckload.us
    สมัครเมื่อ
    Dec 2010
    โพสต์
    137,508
    Thanks
    7
    Thanked 143,446 Times in 62,405 Posts

    Thumbs up [ฝรั่ง]-[AMZN] The Terminal List (TV Series 2022) ดับมือสังหาร Season 1 [เสียงไทย5.1+อังกฤษ5.1 EAC-3][h264][ซับไทย AMZN PGS+Vobsub]



    ขณะพยายามสืบหาตัวการลึกลับเบื้องหลังการตายของทหารใ นสังกัด นาวาตรีเจมส์ รีซผู้เป็นอิสระจากกองทัพฯ ตัดสินใจคิดบัญชี โดยนำบทเรียนจากการสู้รบมาเกือบสองทศวรรษมาใช้ตามล่า ทุกคนที่มีส่วนเกี่ยวข้อง

    แสดงโดย คริส แพ็ตต, คอนสแตนซ์ อู, เทย์เลอร์ คิตช
    ประเภท ระทึกใจ, ดราม่า, แอคชั่น

    General
    Unique ID : 133135419097944190072965261792303286028 (0x6428F2F3A01588CB5E7DF7310C5E870C)
    Complete name : F:S AMZNThe Terminal List - เดอะ เทอร์มินอล ลิสต์ - ดับมือสังหารThe Terminal List (TV Series 2022) S01The.Terminal.List.2022.S01E01.1080p.AMZN.APP-DL.DDP5.1.h264.mkv
    Format : Matroska
    Format version : Version 4 / Version 2
    File size : 1.77 GiB
    Duration : 1 h 5 min
    Overall bit rate : 3 885 kb/s
    Movie name : The Terminal List (TV Series 2022) [email protected]
    Encoded date : UTC 2022-07-01 11:00:06
    Writing application : mkvmerge v63.0.0 ('Everything') 64-bit
    Writing library : libebml v1.4.2 + libmatroska v1.6.4
    Cover : Yes
    Attachments : cover.png

    Video
    ID : 1
    Format : AVC
    Format/Info : Advanced Video Codec
    Format profile : [email protected]
    Format settings, CABAC : Yes
    Format settings, RefFrames : 4 frames
    Codec ID : V_MPEG4/ISO/AVC
    Duration : 1 h 5 min
    Bit rate : 2 570 kb/s
    Width : 1 920 pixels
    Height : 1 080 pixels
    Display aspect ratio : 16:9
    Frame rate mode : Constant
    Frame rate : 23.976 (24000/1001) FPS
    Color space : YUV
    Chroma subsampling : 4:2:0
    Bit depth : 8 bits
    Scan type : Progressive
    Bits/(Pixel*Frame) : 0.052
    Stream size : 1.17 GiB (66%)
    Default : Yes
    Forced : No
    Color range : Limited
    Color primaries : BT.709
    Transfer characteristics : BT.709
    Matrix coefficients : BT.709

    Audio #1
    ID : 2
    Format : E-AC-3
    Format/Info : Enhanced Audio Coding 3
    Format settings, Endianness : Big
    Codec ID : A_EAC3
    Duration : 1 h 5 min
    Bit rate mode : Constant
    Bit rate : 640 kb/s
    Channel(s) : 6 channels
    Channel positions : Front: L C R, Side: L R, LFE
    Sampling rate : 48.0 kHz
    Frame rate : 187.500 FPS (256 SPF)
    Compression mode : Lossy
    Stream size : 298 MiB (16%)
    Title : Thai-DDP 5.1
    Language : Thai
    Service kind : Complete Main
    Default : Yes
    Forced : Yes

    Audio #2
    ID : 3
    Format : E-AC-3
    Format/Info : Enhanced Audio Coding 3
    Format settings, Endianness : Big
    Codec ID : A_EAC3
    Duration : 1 h 5 min
    Bit rate mode : Constant
    Bit rate : 640 kb/s
    Channel(s) : 6 channels
    Channel positions : Front: L C R, Side: L R, LFE
    Sampling rate : 48.0 kHz
    Frame rate : 187.500 FPS (256 SPF)
    Compression mode : Lossy
    Stream size : 298 MiB (16%)
    Title : English-DDP 5.1
    Language : English
    Service kind : Complete Main
    Default : Yes
    Forced : No

    Text #1
    ID : 4
    Format : PGS
    Muxing mode : zlib
    Codec ID : S_HDMV/PGS
    Codec ID/Info : Picture based subtitle format used on BDs/HD-DVDs
    Duration : 1 h 2 min
    Bit rate : 1 113 b/s
    Count of elements : 36
    Stream size : 509 KiB (0%)
    Title : Thai-PGS FORCED From AMZN
    Language : Thai
    Default : Yes
    Forced : Yes

    Text #2
    ID : 5
    Format : PGS
    Muxing mode : zlib
    Codec ID : S_HDMV/PGS
    Codec ID/Info : Picture based subtitle format used on BDs/HD-DVDs
    Duration : 1 h 4 min
    Bit rate : 39.7 kb/s
    Count of elements : 1408
    Stream size : 18.4 MiB (1%)
    Title : Thai-PGS From AMZN
    Language : Thai
    Default : Yes
    Forced : No

    Text #3
    ID : 6
    Format : VobSub
    Muxing mode : zlib
    Codec ID : S_VOBSUB
    Codec ID/Info : Picture based subtitle format used on DVDs
    Duration : 1 h 4 min
    Bit rate : 9 655 b/s
    Count of elements : 703
    Stream size : 4.47 MiB (0%)
    Title : Thai-VOBSUB From AMZN
    Language : Thai
    Default : Yes
    Forced : No

    Text #4
    ID : 7
    Format : UTF-8
    Codec ID : S_TEXT/UTF8
    Codec ID/Info : UTF-8 Plain Text
    Duration : 1 h 4 min
    Bit rate : 58 b/s
    Count of elements : 972
    Stream size : 27.7 KiB (0%)
    Title : English-SRT From AMZN
    Language : English
    Default : Yes
    Forced : No













    Download:filecondo
    The.Terminal.List.2022.S01E08.1080p.AMZN.APP-DL.DDP5.1.h264.mkv
    http://www.filecondo.com/dl.php?f=i0fdf91O7v6E

    The.Terminal.List.2022.S01E07.1080p.AMZN.APP-DL.DDP5.1.h264.mkv
    http://www.filecondo.com/dl.php?f=te0af41O7v5c

    The.Terminal.List.2022.S01E06.1080p.AMZN.APP-DL.DDP5.1.h264.mkv
    http://www.filecondo.com/dl.php?f=C690311O7v4e

    The.Terminal.List.2022.S01E05.1080p.AMZN.APP-DL.DDP5.1.h264.mkv
    http://www.filecondo.com/dl.php?f=e3a8631O7v3d

    The.Terminal.List.2022.S01E04.1080p.AMZN.APP-DL.DDP5.1.h264.mkv
    http://www.filecondo.com/dl.php?f=D787501O7v2n

    The.Terminal.List.2022.S01E03.1080p.AMZN.APP-DL.DDP5.1.h264.mkv
    http://www.filecondo.com/dl.php?f=ufcee71O7v1k

    The.Terminal.List.2022.S01E02.1080p.AMZN.APP-DL.DDP5.1.h264.mkv
    http://www.filecondo.com/dl.php?f=Q560471O7v0j

    The.Terminal.List.2022.S01E01.1080p.AMZN.APP-DL.DDP5.1.h264.mkv
    http://www.filecondo.com/dl.php?f=Paed8f1O7uZt

    Download:cornfile
    The.Terminal.List.2022.S01E01.1080p.AMZN.APP-DL.DDP5.1.h264.mkv - 1.8 GB
    The.Terminal.List.2022.S01E02.1080p.AMZN.APP-DL.DDP5.1.h264.mkv - 1.3 GB
    The.Terminal.List.2022.S01E03.1080p.AMZN.APP-DL.DDP5.1.h264.mkv - 1.4 GB
    The.Terminal.List.2022.S01E04.1080p.AMZN.APP-DL.DDP5.1.h264.mkv - 1.7 GB
    The.Terminal.List.2022.S01E05.1080p.AMZN.APP-DL.DDP5.1.h264.mkv - 1.2 GB
    The.Terminal.List.2022.S01E06.1080p.AMZN.APP-DL.DDP5.1.h264.mkv - 1.7 GB
    The.Terminal.List.2022.S01E07.1080p.AMZN.APP-DL.DDP5.1.h264.mkv - 1.4 GB
    The.Terminal.List.2022.S01E08.1080p.AMZN.APP-DL.DDP5.1.h264.mkv - 1.8 GB

  2. The Following 2 Users Say Thank You to Duckload.us For This Useful Post:

    kappa (07-03-2022), neorun (07-02-2022)

  3. #2
    Senior Member
    สมัครเมื่อ
    Jul 2013
    โพสต์
    3,357
    Thanks
    0
    Thanked 0 Times in 0 Posts
    ขอบคุณครับ

  4. #3
    Senior Member
    สมัครเมื่อ
    Jul 2012
    โพสต์
    8,036
    Thanks
    0
    Thanked 0 Times in 0 Posts
    ขอบคุณมากจ้า

+ ตอบกลับกระทู้

ข้อมูลกระทู้

Users Browsing this Thread

ในขณะนี้มี 1 ท่านดูกระทู้อยู่. (0 สมาชิกและ 1 ผู้เยี่ยมชม)

     

กฎการโพสต์ข้อความ

  • ท่าน ไม่สามารถ ตั้งกระทู้ใหม่ได้
  • ท่าน ไม่สามารถ ตอบกระทู้ได้
  • ท่าน ไม่สามารถ แนบไฟล์ได้
  • ท่าน ไม่สามารถ แก้ไขข้อความโพสต์ได้
  • BB code สถานะ เปิด
  • Smilies สถานะ เปิด
  • [IMG] สถานะ เปิด
  • HTML สถานะ ปิด