+ ตอบกลับกระทู้
สรุปผลการค้นหา 1 ถึง 6 จากทั้งหมด 6
  1. #1
    Administrators รูปส่วนตัว Duckload.us
    สมัครเมื่อ
    Dec 2010
    โพสต์
    137,508
    Thanks
    7
    Thanked 143,447 Times in 62,405 Posts

    Thumbs up [ฝรั่ง]-[Netflix] The Gray Man (2022) ล่องหนฆ่า [เสียง:อังกฤษ-ไทย AC-3 5.1][บรรยาย: ไทย PGS/SRT-อังกฤษ SRT Netflix]-WEB-DL.H.264.1080p. [Netflix (web-dl)]-[พากย์ไทย บรรยายไทย]




    เจ้าหน้าที่เงาของซีไอเอล่วงรู้ความลับที่เลวร้ายของ องค์กร จึงถูกอดีตเพื่อนร่วมงานที่วิปริตสุดขั้วตั้งค่าหัวก ้อนใหญ่ นำไปสู่มหกรรมล่าระห่ำข้ามโลก

    Video
    ID : 1
    Format : AVC
    Format/Info : Advanced Video Codec
    Format profile : [email protected]
    Format settings, CABAC : Yes
    Format settings, RefFrames : 4 frames
    Codec ID : V_MPEG4/ISO/AVC
    Duration : 2 h 9 min
    Bit rate mode : Variable
    Bit rate : 3 974 kb/s
    Maximum bit rate : 20.0 Mb/s
    Width : 1 920 pixels
    Height : 1 080 pixels
    Display aspect ratio : 16:9
    Frame rate mode : Constant
    Frame rate : 24.000 FPS
    Color space : YUV
    Chroma subsampling : 4:2:0
    Bit depth : 8 bits
    Scan type : Progressive
    Bits/(Pixel*Frame) : 0.080
    Stream size : 3.58 GiB (75%)
    Writing library : x264 core 148 r2727 7d026e8
    Encoding settings : cabac=1 / ref=4 / deblock=1:0:0 / analyse=0x3:0x111 / me=umh / subme=10 / psy=1 / psy_rd=1.00:0.00 / mixed_ref=1 / me_range=120 / chroma_me=1 / trellis=2 / 8x8dct=1 / cqm=0 / deadzone=21,11 / fast_pskip=1 / chroma_qp_offset=-2 / threads=8 / lookahead_threads=2 / sliced_threads=0 / nr=0 / decimate=1 / interlaced=0 / bluray_compat=0 / stitchable=1 / constrained_intra=0 / bframes=16 / b_pyramid=2 / b_adapt=2 / b_bias=0 / direct=3 / weightb=1 / open_gop=0 / weightp=2 / keyint=240 / keyint_min=121 / scenecut=0 / intra_refresh=0 / rc_lookahead=240 / rc=crf / mbtree=1 / crf=16.0 / qcomp=0.50 / qpmin=6 / qpmax=51 / qpstep=4 / vbv_maxrate=20000 / vbv_bufsize=25000 / crf_max=0.0 / nal_hrd=vbr / filler=0 / ip_ratio=1.40 / aq=1:0.80
    Default : Yes
    Forced : No

    Audio #1
    ID : 2
    Format : E-AC-3
    Format/Info : Enhanced Audio Coding 3
    Format settings, Endianness : Big
    Codec ID : A_EAC3
    Duration : 2 h 9 min
    Bit rate mode : Constant
    Bit rate : 640 kb/s
    Channel(s) : 6 channels
    Channel positions : Front: L C R, Side: L R, LFE
    Sampling rate : 48.0 kHz
    Frame rate : 187.500 FPS (256 SPF)
    Compression mode : Lossy
    Stream size : 591 MiB (12%)
    Title : [Thai-AC-3]
    Language : Thai
    Service kind : Complete Main
    Default : Yes
    Forced : No

    Audio #2
    ID : 3
    Format : E-AC-3
    Format/Info : Enhanced Audio Coding 3
    Format settings, Endianness : Big
    Codec ID : A_EAC3
    Duration : 2 h 9 min
    Bit rate mode : Constant
    Bit rate : 640 kb/s
    Channel(s) : 6 channels
    Channel positions : Front: L C R, Side: L R, LFE
    Sampling rate : 48.0 kHz
    Frame rate : 187.500 FPS (256 SPF)
    Compression mode : Lossy
    Stream size : 591 MiB (12%)
    Title : [English-AC-3]
    Language : English
    Service kind : Complete Main
    Default : No
    Forced : No

    Text #1
    ID : 4
    Format : PGS
    Muxing mode : zlib
    Codec ID : S_HDMV/PGS
    Codec ID/Info : Picture based subtitle format used on BDs/HD-DVDs
    Duration : 2 h 5 min
    Bit rate : 557 b/s
    Count of elements : 74
    Stream size : 513 KiB (0%)
    Title : [Thai Netflix Forced PGS]
    Language : Thai
    Default : Yes
    Forced : No

    Text #2
    ID : 5
    Format : PGS
    Muxing mode : zlib
    Codec ID : S_HDMV/PGS
    Codec ID/Info : Picture based subtitle format used on BDs/HD-DVDs
    Duration : 2 h 6 min
    Bit rate : 30.6 kb/s
    Count of elements : 2622
    Stream size : 27.6 MiB (1%)
    Title : [Thai Netflix PGS]
    Language : Thai
    Default : No
    Forced : No

    Text #3
    ID : 6
    Format : UTF-8
    Codec ID : S_TEXT/UTF8
    Codec ID/Info : UTF-8 Plain Text
    Duration : 2 h 5 min
    Bit rate : 1 b/s
    Count of elements : 37
    Stream size : 1.49 KiB (0%)
    Title : SRT Forced
    Language : Thai
    Default : No
    Forced : No

    Text #4
    ID : 7
    Format : UTF-8
    Codec ID : S_TEXT/UTF8
    Codec ID/Info : UTF-8 Plain Text
    Duration : 2 h 6 min
    Bit rate : 90 b/s
    Count of elements : 1311
    Stream size : 83.3 KiB (0%)
    Title : SRT
    Language : Thai
    Default : No
    Forced : No

    Text #5
    ID : 8
    Format : UTF-8
    Codec ID : S_TEXT/UTF8
    Codec ID/Info : UTF-8 Plain Text
    Duration : 2 h 6 min
    Bit rate : 61 b/s
    Count of elements : 1813
    Stream size : 56.6 KiB (0%)
    Title : SRT
    Language : English
    Default : No
    Forced : No








    Download:filecondo
    The.Gray.Man.2022.1080p.10bit.NF.WEB-DL.60FPS.x265.HEVC.mkv
    http://www.filecondo.com/dl.php?f=fd57ee1OfcJS
    The.Gray.Man.2022.1080p.WEBRip.x264_GOLD_CUP.mkv
    http://www.filecondo.com/dl.php?f=S7b0eb1Ofcu5
    The.Gray.Man.2022.1080p.NF.WEB-DL.HDR.DDP5.1.HEVC.x265.mkv
    http://www.filecondo.com/dl.php?f=8f2fbf1OfcjH
    The_Gray_Man_(2022)_ล่องหนฆ่า.1080p.mkv
    http://www.filecondo.com/dl.php?f=nb28cd1OeSWy

    Download:cornfile
    The Gray Man (2022).mkv - 4.8 GB
    The.Gray.Man.2022.1080p.10bit.NF.WEB-DL.60FPS.x265.HEVC.mkv - 4.0 GB
    The.Gray.Man.2022.1080p.10bit.NF.WEB-DL.60FPS.x265.HEVC.mkv - 4.0 GB
    The.Gray.Man.2022.1080p.NF.WEB-DL.HDR.DDP5.1.HEVC.x265.mkv - 5.3 GB

  2. The Following 6 Users Say Thank You to Duckload.us For This Useful Post:

    dulobobo (07-23-2022), jackjangri (08-07-2022), Jodz14 (07-24-2022), kappa (07-25-2022), sawara (07-29-2022), Wesker_TOT (07-23-2022)

  3. #2
    Senior Member
    สมัครเมื่อ
    Jul 2012
    โพสต์
    8,036
    Thanks
    0
    Thanked 0 Times in 0 Posts
    ขอบคุณมากจ้า

  4. #3
    Senior Member
    สมัครเมื่อ
    Dec 2013
    โพสต์
    3,801
    Thanks
    5,706
    Thanked 0 Times in 0 Posts
    ขอบคุณครับ...

  5. #4
    Junior Member
    สมัครเมื่อ
    Aug 2013
    โพสต์
    13
    Thanks
    1
    Thanked 0 Times in 0 Posts
    ขอบคุณมากครับ

  6. #5
    Senior Member
    สมัครเมื่อ
    Dec 2013
    โพสต์
    651
    Thanks
    599
    Thanked 0 Times in 0 Posts
    ขอบคุณครับบ

  7. #6
    I'm donate !
    สมัครเมื่อ
    Jun 2011
    โพสต์
    471
    Thanks
    624
    Thanked 40 Times in 29 Posts
    ขอบคุณครับ...

+ ตอบกลับกระทู้

ข้อมูลกระทู้

Users Browsing this Thread

ในขณะนี้มี 1 ท่านดูกระทู้อยู่. (0 สมาชิกและ 1 ผู้เยี่ยมชม)

     

กฎการโพสต์ข้อความ

  • ท่าน ไม่สามารถ ตั้งกระทู้ใหม่ได้
  • ท่าน ไม่สามารถ ตอบกระทู้ได้
  • ท่าน ไม่สามารถ แนบไฟล์ได้
  • ท่าน ไม่สามารถ แก้ไขข้อความโพสต์ได้
  • BB code สถานะ เปิด
  • Smilies สถานะ เปิด
  • [IMG] สถานะ เปิด
  • HTML สถานะ ปิด